Ссылка на приватное зеркало нашего сайта всего за 1$. Внимание количество ограничено!!!

2 сезон

iTunes

1 сезон

1

2 сезон

2 сезон

iTunes

1 сезон

RePack

30

Ultimate

ВАЖНО

ИГРА 18+

pack

RePack

MK11
pack

Забери бонус

RePack

jed

!!Акция!!

Alien_Rage

RePack

fifa19

RePack

Assassins Creed: Odyssey

RePack

NEED FOR SPEED™ PAYBACK

4 сезон

9 сезон

Бесстыжие 9 сезон

Все сериалы

все сериалы на PB.wtf

RePack

FAR CRY 5
  

Judas Priest - Live In London(2CD) - 2003/ APE/ image +.cue/ lossless/ Heavy Metal pb.wtf

Judas Priest - Live In London через торрент pb.wtf

Размер: 972 MB | Добавлен: 1 год назад | Торрент скачан:2 раза
Скачать  

22-11-2019 18:28 Judas Priest - Live In London Скачать торрент  


Judas Priest - Live In London(2CD)


Год издания: 2003
Страна: UK
Жанр: Heavy Metal
Продолжительность: 02:09:16
Лейбл издания: SPV
Страна-выпуска диска: Germany
Номер по каталогу: SPV 092-74262 DCD-E
Формат: APE
Битрейт аудио: Lossless
Тип рипа: image +.cue
Наличие сканов в содержимом раздачи: да


01. Metal Gods (4:37)
02. Heading Out To The Highway (4:14)
03. Grinder (4:04)
04. Touch Of Evil (5:58)
05. Blood Stained (5:11)
06. Victim Of Changes (10:08)
07. The Sentinel (5:32)
08. One On One (6:06)
09. Running Wild (3:19)
10. Ripper (3:31)
11. Diamonds & Rust (4:13)
12. Feed On Me (5:25)
13. Green Manalishi (4:51)

01. Beyond The Realms Of Death (7:16)
02. Burn In Hell (5:22)
03. Hell Is Home (5:48)
04. Breaking The Law (2:48)
05. Desert Plains (4:26)
06. You've Got Another Thing Coming (5:21)
07. Turbo Lover (5:39)
08. Painkiller (7:17)
09. Hellion (0:36)
10. Electric Eye (3:35)
11. United (2:56)
12. Living After Midnight (5:13)
13. Hell Bent For Leather (5:48)

Код:

Exact Audio Copy V1.2 from 12. August 2016

EAC extraction logfile from 21. October 2019, 21:33

Judas Priest / Live In London (Disc 1)

Used drive  : MATSHITABD-MLT UJ267   Adapter: 1  ID: 0

Read mode               : Secure
Utilize accurate stream : Yes
Defeat audio cache      : Yes
Make use of C2 pointers : No

Read offset correction                      : 103
Overread into Lead-In and Lead-Out          : No
Fill up missing offset samples with silence : Yes
Delete leading and trailing silent blocks   : No
Null samples used in CRC calculations       : Yes
Used interface                              : Native Win32 interface for Win NT & 2000

Used output format              : User Defined Encoder
Selected bitrate                : 1024 kBit/s
Quality                         : High
Add ID3 tag                     : Yes
Command line compressor         : C:\Program Files (x86)\Exact Audio Copy\EAC.exe

TOC of the extracted CD

     Track |   Start  |  Length  | Start sector | End sector
    ---------------------------------------------------------
        1  |  0:00.00 |  4:36.74 |         0    |    20773
        2  |  4:36.74 |  4:13.59 |     20774    |    39807
        3  |  8:50.58 |  4:04.14 |     39808    |    58121
        4  | 12:54.72 |  5:58.33 |     58122    |    85004
        5  | 18:53.30 |  5:11.33 |     85005    |   108362
        6  | 24:04.63 | 10:08.32 |    108363    |   153994
        7  | 34:13.20 |  5:31.57 |    153995    |   178876
        8  | 39:45.02 |  6:05.49 |    178877    |   206300
        9  | 45:50.51 |  3:19.28 |    206301    |   221253
       10  | 49:10.04 |  3:31.37 |    221254    |   237115
       11  | 52:41.41 |  4:13.36 |    237116    |   256126
       12  | 56:55.02 |  5:25.09 |    256127    |   280510
       13  | 62:20.11 |  4:51.08 |    280511    |   302343
       14  | 69:43.19 |  5:19.56 |    313744    |   337724

Range status and errors

Selected range

     Filename C:\ Judas Priest - Live In London (Disc 1).wav

     Peak level 100.0 %
     Extraction speed 2.7 X
     Range quality 100.0 %
     Test CRC 0E8879DE
     Copy CRC 0E8879DE
     Copy OK

No errors occurred

AccurateRip summary

Track  1  accurately ripped (confidence 26)  [28AB6ADF]  (AR v2)
Track  2  accurately ripped (confidence 26)  [DAED56A1]  (AR v2)
Track  3  accurately ripped (confidence 26)  [E42877F3]  (AR v2)
Track  4  accurately ripped (confidence 26)  [33C1A0D9]  (AR v2)
Track  5  accurately ripped (confidence 26)  [D93992E2]  (AR v2)
Track  6  accurately ripped (confidence 26)  [556C6FCD]  (AR v2)
Track  7  accurately ripped (confidence 26)  [F1EF65EE]  (AR v2)
Track  8  accurately ripped (confidence 26)  [C5C0B061]  (AR v2)
Track  9  accurately ripped (confidence 26)  [A4321C95]  (AR v2)
Track 10  accurately ripped (confidence 26)  [3FC4A9F8]  (AR v2)
Track 11  accurately ripped (confidence 26)  [F5CE42DC]  (AR v2)
Track 12  accurately ripped (confidence 26)  [335FF719]  (AR v2)
Track 13  accurately ripped (confidence 26)  [B052B8E7]  (AR v2)

All tracks accurately ripped

End of status report

Код:

Exact Audio Copy V1.2 from 12. August 2016

EAC extraction logfile from 21. October 2019, 22:09

Judas Priest / Live In London (Disc 2)

Used drive  : MATSHITABD-MLT UJ267   Adapter: 1  ID: 0

Read mode               : Secure
Utilize accurate stream : Yes
Defeat audio cache      : Yes
Make use of C2 pointers : No

Read offset correction                      : 103
Overread into Lead-In and Lead-Out          : No
Fill up missing offset samples with silence : Yes
Delete leading and trailing silent blocks   : No
Null samples used in CRC calculations       : Yes
Used interface                              : Native Win32 interface for Win NT & 2000

Used output format : Internal WAV Routines
Sample format      : 44.100 Hz; 16 Bit; Stereo

TOC of the extracted CD

     Track |   Start  |  Length  | Start sector | End sector
    ---------------------------------------------------------
        1  |  0:00.00 |  7:15.53 |         0    |    32677
        2  |  7:15.53 |  5:22.29 |     32678    |    56856
        3  | 12:38.07 |  5:47.52 |     56857    |    82933
        4  | 18:25.59 |  2:47.68 |     82934    |    95526
        5  | 21:13.52 |  4:25.62 |     95527    |   115463
        6  | 25:39.39 |  5:20.44 |    115464    |   139507
        7  | 31:00.08 |  5:39.08 |    139508    |   164940
        8  | 36:39.16 |  7:16.74 |    164941    |   197714
        9  | 43:56.15 |  0:36.18 |    197715    |   200432
       10  | 44:32.33 |  3:35.32 |    200433    |   216589
       11  | 48:07.65 |  2:55.53 |    216590    |   229767
       12  | 51:03.43 |  5:13.19 |    229768    |   253261
       13  | 56:16.62 |  5:47.57 |    253262    |   279343
       14  | 64:36.44 |  5:19.56 |    290744    |   314724

Range status and errors

Selected range

     Filename C:\ Judas Priest - Live In London (Disc 2).wav

     Peak level 99.4 %
     Extraction speed 4.3 X
     Range quality 100.0 %
     Test CRC 4089E5ED
     Copy CRC 4089E5ED
     Copy OK

No errors occurred

AccurateRip summary

Track  1  accurately ripped (confidence 25)  [6D9C229D]  (AR v2)
Track  2  accurately ripped (confidence 25)  [8DAD36DF]  (AR v2)
Track  3  accurately ripped (confidence 25)  [E53FB939]  (AR v2)
Track  4  accurately ripped (confidence 25)  [829DA68C]  (AR v2)
Track  5  accurately ripped (confidence 25)  [CF31E5A0]  (AR v2)
Track  6  accurately ripped (confidence 25)  [147CA7FF]  (AR v2)
Track  7  accurately ripped (confidence 26)  [E59089FE]  (AR v2)
Track  8  accurately ripped (confidence 26)  [B5057C62]  (AR v2)
Track  9  accurately ripped (confidence 26)  [19F2711A]  (AR v2)
Track 10  accurately ripped (confidence 26)  [0B2D1A38]  (AR v2)
Track 11  accurately ripped (confidence 27)  [CB7C23B9]  (AR v2)
Track 12  accurately ripped (confidence 27)  [F955E51F]  (AR v2)
Track 13  accurately ripped (confidence 26)  [42B6BB5E]  (AR v2)

All tracks accurately ripped

End of status report

Код:

REM GENRE "Heavy Metal"
REM DATE 2003
REM DISCID CA11970E
REM COMMENT "ExactAudioCopy v1.2"
PERFORMER "Judas Priest"
TITLE "Live In London (Disc 1)"
REM COMPOSER ""
FILE "Judas Priest - Live In London (Disc 1).ape" WAVE
  TRACK 01 AUDIO
    TITLE "Metal Gods"
    PERFORMER "Judas Priest"
    REM COMPOSER ""
    INDEX 01 00:00:00
  TRACK 02 AUDIO
    TITLE "Heading Out To The Highway"
    PERFORMER "Judas Priest"
    REM COMPOSER ""
    INDEX 00 04:36:51
    INDEX 01 04:36:74
  TRACK 03 AUDIO
    TITLE "Grinder"
    PERFORMER "Judas Priest"
    REM COMPOSER ""
    INDEX 00 08:50:49
    INDEX 01 08:50:58
  TRACK 04 AUDIO
    TITLE "Touch Of Evil"
    PERFORMER "Judas Priest"
    REM COMPOSER ""
    INDEX 00 12:54:05
    INDEX 01 12:54:72
  TRACK 05 AUDIO
    TITLE "Blood Stained"
    PERFORMER "Judas Priest"
    REM COMPOSER ""
    INDEX 01 18:53:30
  TRACK 06 AUDIO
    TITLE "Victim Of Changes"
    PERFORMER "Judas Priest"
    REM COMPOSER ""
    INDEX 00 24:04:40
    INDEX 01 24:04:63
  TRACK 07 AUDIO
    TITLE "The Sentinel"
    PERFORMER "Judas Priest"
    REM COMPOSER ""
    INDEX 00 34:12:32
    INDEX 01 34:13:20
  TRACK 08 AUDIO
    TITLE "One On One"
    PERFORMER "Judas Priest"
    REM COMPOSER ""
    INDEX 00 39:44:72
    INDEX 01 39:45:02
  TRACK 09 AUDIO
    TITLE "Running Wild"
    PERFORMER "Judas Priest"
    REM COMPOSER ""
    INDEX 00 45:50:41
    INDEX 01 45:50:51
  TRACK 10 AUDIO
    TITLE "Ripper"
    PERFORMER "Judas Priest"
    REM COMPOSER ""
    INDEX 01 49:10:04
  TRACK 11 AUDIO
    TITLE "Diamonds & Rust"
    PERFORMER "Judas Priest"
    REM COMPOSER ""
    INDEX 00 52:40:68
    INDEX 01 52:41:41
  TRACK 12 AUDIO
    TITLE "Feed On Me"
    PERFORMER "Judas Priest"
    REM COMPOSER ""
    INDEX 00 56:54:23
    INDEX 01 56:55:02
  TRACK 13 AUDIO
    TITLE "Green Manalishi"
    PERFORMER "Judas Priest"
    REM COMPOSER ""
    INDEX 00 62:19:74
    INDEX 01 62:20:11

Код:

REM GENRE "Heavy Metal"
REM DATE 2003
REM DISCID D410640E
REM COMMENT "ExactAudioCopy v1.2"
PERFORMER "Judas Priest"
TITLE "Live In London (Disc 2)"
REM COMPOSER ""
FILE "Judas Priest - Live In London (Disc 2).wav" WAVE
  TRACK 01 AUDIO
    TITLE "Beyond The Realms Of Death"
    PERFORMER "Judas Priest"
    REM COMPOSER ""
    INDEX 01 00:00:00
  TRACK 02 AUDIO
    TITLE "Burn In Hell"
    PERFORMER "Judas Priest"
    REM COMPOSER ""
    INDEX 01 07:15:53
  TRACK 03 AUDIO
    TITLE "Hell Is Home"
    PERFORMER "Judas Priest"
    REM COMPOSER ""
    INDEX 00 12:37:74
    INDEX 01 12:38:07
  TRACK 04 AUDIO
    TITLE "Breaking The Law"
    PERFORMER "Judas Priest"
    REM COMPOSER ""
    INDEX 01 18:25:59
  TRACK 05 AUDIO
    TITLE "Desert Plains"
    PERFORMER "Judas Priest"
    REM COMPOSER ""
    INDEX 01 21:13:52
  TRACK 06 AUDIO
    TITLE "You've Got Another Thing Coming"
    PERFORMER "Judas Priest"
    REM COMPOSER ""
    INDEX 01 25:39:39
  TRACK 07 AUDIO
    TITLE "Turbo Lover"
    PERFORMER "Judas Priest"
    REM COMPOSER ""
    INDEX 00 31:00:01
    INDEX 01 31:00:08
  TRACK 08 AUDIO
    TITLE "Painkiller"
    PERFORMER "Judas Priest"
    REM COMPOSER ""
    INDEX 01 36:39:16
  TRACK 09 AUDIO
    TITLE "Hellion"
    PERFORMER "Judas Priest"
    REM COMPOSER ""
    INDEX 00 43:56:09
    INDEX 01 43:56:15
  TRACK 10 AUDIO
    TITLE "Electric Eye"
    PERFORMER "Judas Priest"
    REM COMPOSER ""
    INDEX 00 44:32:31
    INDEX 01 44:32:33
  TRACK 11 AUDIO
    TITLE "United"
    PERFORMER "Judas Priest"
    REM COMPOSER ""
    INDEX 01 48:07:65
  TRACK 12 AUDIO
    TITLE "Living After Midnight"
    PERFORMER "Judas Priest"
    REM COMPOSER ""
    INDEX 01 51:03:43
  TRACK 13 AUDIO
    TITLE "Hell Bent For Leather"
    PERFORMER "Judas Priest"
    REM COMPOSER ""
    INDEX 01 56:16:62


Ripper Owens - Vocals
Glenn Tipton - Guitars
K.K. Downing - Guitara
Ian Hill - Bass Guitars
Scott Travis - Drums


pb.wtf



Скачать Judas Priest - Live In London через торрент http://c.radikal.ru/c38/1911/97/0497ec7d3847.png Скачать фильм Judas Priest - Live In Londonчерез торрент бесплантно в хорошем качестве ... 10 10 1
Торрент: Зарегистрирован [2019-11-22 18:28] · скачан: 2 раз
Статус: √ проверено
Размер: 972 MB
Как cкачать? Как скачать Judas Priest - Live In London через торрент | qTorrent

28-11-2019 20:33  

Отключить всю рекламу на сайте

    Дорогой пользователь! Огромная просьба, поблагодарите релизера, оцените раздачу и оставьте свои комментарий, если Вы скачали Judas Priest - Live In London через торрент бесплатно! Внесите свою лепту в развитие PiratBit!
    Комментировать посты могут только пользователи прошедшие не сложную регистрацию
    Показать сообщения:    

    Judas Priest - Live In London через торрент
    Скачать бесплатно Judas Priest - Live In London
    Judas Priest - Live In London скачать торрент
    Judas Priest - Live In London смотреть онлайн
    Cкачать фильм Judas Priest - Live In London бесплатно
    Judas Priest - Live In London скачать торрент в хорошем качестве
    Judas Priest - Live In London смотреть онлайн бесплатно в хорошем качестве


    Вы не можете начинать темы
    Вы не можете отвечать на сообщения
    Вы не можете редактировать свои сообщения
    Вы не можете удалять свои сообщения
    Вы не можете голосовать в опросах
    Вы не можете прикреплять файлы к сообщениям
    Вы можете скачивать файлы