Ссылка на приватное зеркало всего за 1$. Внимание количество ограничено!!!

iTunes

1+1

iTunes

мы

WEB-DL

1

iTunes

Чернобыль

iTunes

Ральф против интернета

Лицензия

ПШазам

Лицензия

Оно 2

Лицензия

30
pack

Вам бонус

ВАЖНО

!!Акция!!

Alien_RageХит недели

RePack

Resident Evil 21

ИГРА 18+

pack

RePack

jed

!!Акция!!

Alien_Rage

RePack

fifa19

RePack

Assassins Creed: Odyssey

RePack

NEED FOR SPEED™ PAYBACK

3 сезон

9 сезон

Бесстыжие 9 сезон

Все сериалы

все сериалы на PB.wtf

RePack

FAR CRY 5
Ребята, катастрофически не хватает 1900р. для оплаты серверов за Октябрь (всвязи с блокировками трафик упал в 3 раза), 1-2р., выручайте.
  

Та, которой не было / Celle que vous croyez / Who You Think I Am (Сэфи Неббу) [2019, Драма, мелодрама, BDRip-AVC] DUB [iTunes] pb.wtf

Та, которой не было через торрент pb.wtf

Раздают: 12 [ 4 KB/s ]
Размер: 1.52 GB | Добавлен: 20 д. назад | Торрент скачан:108 раз
Скачать  

23-11-2019 06:19 Та, которой не было Скачать торрент  

Та, которой не было / Celle que vous croyez / Who You Think I Am
Год выпуска: 2019
Страна: Франция, Бельгия
Жанр: Драма, мелодрама
Продолжительность: 01:41:34
Перевод: Дублированный | iTunes
Субтитры: отсутствуют

Режиссер: Сэфи Неббу

rating

В ролях: Жюльет Бинош, Николь Гарсиа, Франсуа Сивиль, Мари-Анж Каста, Гийом Гуи, Шарль Берлинг, Жуль Уплен, Жюль Гозлен, Френсис Леплей, Пьер Жиро

Описание: Несколько лет назад Клэр тяжело пережила измену мужа и развод. Постепенно ее жизнь наладилась: она преподает в университете, воспитывает двух мальчиков и встречается с молодым любовником. Но однажды тот, высмеяв ее чувства, исчезает. Мир Клэр рассыпается на осколки. Желание спастись от отчаяния — это прямая дорога к психоаналитику или… создание фальшивого профиля в фейсбуке. Здесь она предстает 24-летней сексуальной красавицей Кларой. И очень скоро у нее завязываются виртуальные отношения с молодым фотографом Алексом. Кокетливый трёп перерастает во взаимную привязанность, а потом и в настоящую страсть.

Качество: BDRip-AVC
Формат: MKV

Видео: 1024x428 (2.40:1), 23,976 fps, x264 ~1 769 kbps avg, 0.168 bit/pixel
Аудио: 48 kHz, AC3 Dolby Digital, 3/2 (L,C,R,l,r) + LFE ch, ~384.00 kbps avg | RUS (iTunes)
скриншот  скриншот  скриншот  скриншот  скриншот  

Общее
Уникальный идентификатор : 249473547716731256286853902250745883628 (0xBBAEDB8AE366BD3F86E4AA9AA5556BEC)
Полное имя : F:OlLanDGroupCelle.Que.Vous.Croyez.2019.BDRip(AVC).OllanDGroup.mkv
Формат : Matroska
Версия формата : Version 4 / Version 2
Размер файла : 1,52 Гбайт
Продолжительность : 1 ч. 41 м.
Общий поток : 2149 Кбит/сек
Название фильма : Celle que vous croyez #TorpedoUK#
Дата кодирования : UTC 2019-11-23 05:46:41
Программа кодирования : mkvmerge v29.0.0 ('Like It Or Not') 64-bit
Библиотека кодирования : libebml v1.3.6 + libmatroska v1.4.9

Видео
Идентификатор : 1
Формат : AVC
Формат/Информация : Advanced Video Codec
Профиль формата : High@L4.1
Параметр CABAC формата : Да
Параметр ReFrames формата : 10 кадров
Идентификатор кодека : V_MPEG4/ISO/AVC
Продолжительность : 1 ч. 41 м.
Битрейт : 1769 Кбит/сек
Ширина : 1024 пикселя
Высота : 428 пикселей
Соотношение сторон : 2,40:1
Режим частоты кадров : Постоянный
Частота кадров : 23,976 (24000/1001) кадра/сек
Цветовое пространство : YUV
Субдискретизация насыщенности : 4:2:0
Битовая глубина : 8 бит
Тип развёртки : Прогрессивная
Бит/(Пиксели*Кадры) : 0.168
Размер потока : 1,25 Гбайт (82%)
Библиотека кодирования : x264 core 146 r2538 121396c
Настройки программы : cabac=1 / ref=10 / deblock=1:-2:-3 / analyse=0x3:0x113 / me=umh / subme=11 / psy=1 / psy_rd=0.90:0.10 / mixed_ref=1 / me_range=48 / chroma_me=1 / trellis=2 / 8x8dct=1 / cqm=0 / deadzone=21,11 / fast_pskip=1 / chroma_qp_offset=-6 / threads=6 / lookahead_threads=1 / sliced_threads=0 / nr=0 / decimate=1 / interlaced=0 / bluray_compat=0 / constrained_intra=0 / bframes=11 / b_pyramid=2 / b_adapt=2 / b_bias=0 / direct=3 / weightb=1 / open_gop=0 / weightp=2 / keyint=240 / keyint_min=23 / scenecut=40 / intra_refresh=0 / rc_lookahead=40 / rc=2pass / mbtree=0 / bitrate=1769 / ratetol=1.0 / qcomp=0.60 / qpmin=0 / qpmax=69 / qpstep=4 / cplxblur=20.0 / qblur=0.5 / vbv_maxrate=50000 / vbv_bufsize=62500 / nal_hrd=none / filler=0 / ip_ratio=1.40 / pb_ratio=1.30 / aq=1:1.00
Язык : English
Default : Да
Forced : Нет

Аудио
Идентификатор : 2
Формат : AC-3
Формат/Информация : Audio Coding 3
Расширение режима : CM (complete main)
Параметр Endianness формата : Big
Идентификатор кодека : A_AC3
Продолжительность : 1 ч. 41 м.
Вид битрейта : Постоянный
Битрейт : 384 Кбит/сек
Каналы : 6 каналов
Расположение каналов : Front: L C R, Side: L R, LFE
Частота : 48,0 КГц
Частота кадров : 31,250 кадров/сек (1536 spf)
Битовая глубина : 16 бит
Метод сжатия : С потерями
Размер потока : 279 Мбайт (18%)
Заголовок : DUB [iTunes]
Язык : Russian
Default : Да
Forced : Нет

Меню
00:00:00.000 : :Глава 01
00:09:40.745 : :Глава 02
00:18:54.590 : :Глава 03
00:26:41.307 : :Глава 04
00:36:23.639 : :Глава 05
00:47:12.704 : :Глава 06
00:56:22.670 : :Глава 07
01:05:00.478 : :Глава 08
01:13:09.091 : :Глава 09
01:21:57.328 : :Глава 10
01:30:23.667 : :Глава 11
01:36:45.381 : :Глава 12

pb.wtf



Скачать Та, которой не было через торрент https://c.radikal.ru/c42/1910/4b/97f91d1510f8.png Скачать фильм Та, которой не было через торрент бесплантно в хорошем качестве Описание: Несколько лет назад Клэр тяжело пережила измену мужа и развод. Постепенно ее жизнь наладилась: она преподает в университете, ... 10 10 5
Торрент: Зарегистрирован [2019-11-23 06:19] · скачан: 108 раз
Статус: √ проверено
Размер: 1.52 GB
Как cкачать? Как скачать Та, которой не было через торрент | qTorrent

% Раздел Тема Автор DL S | L
Фильмы [HD 720p, 1080p] (Хороший звук DUB, MVO) [ 9.95 GB ] Та которой не было / Celle que vous croyez / Who You Think I Am [2019 BDRip 1080p] bober100 Скачать
1 | 1
Фильмы [HD 720p, 1080p] (Хороший звук DUB, MVO) [ 3.56 GB ] Та которой не было / Celle que vous croyez / Who You Think I Am [2019 BDRip 720p] bober100 Скачать
2 | 0
Фильмы 2019 [DVDrip, WEB-DLRip, HDrip] (DUB, MVO) [ 1.46 GB ] Та которой не было / Celle que vous croyez / Who You Think I Am [2019 BDRip] bober100 Скачать
10 | 0

28-11-2019 20:33  

Отключить всю рекламу на сайте

    Дорогой пользователь! Огромная просьба, поблагодарите релизера, оцените раздачу и оставьте свои комментарий, если Вы скачали Та, которой не было через торрент бесплатно! Внесите свою лепту в развитие PiratBit!
    Комментировать посты могут только пользователи прошедшие не сложную регистрацию
    Показать сообщения:    

    Та, которой не было через торрент
    Скачать бесплатно Та, которой не было
    Та, которой не было скачать торрент
    Та, которой не было смотреть онлайн
    Cкачать фильм Та, которой не было бесплатно
    Та, которой не было скачать торрент в хорошем качестве
    Та, которой не было смотреть онлайн бесплатно в хорошем качестве


    Вы не можете начинать темы
    Вы не можете отвечать на сообщения
    Вы не можете редактировать свои сообщения
    Вы не можете удалять свои сообщения
    Вы не можете голосовать в опросах
    Вы не можете прикреплять файлы к сообщениям
    Вы можете скачивать файлы