2 сезон

iTunes

1 сезон

1

iTunes

iTunes

iTunes

1 сезон

RePack

30

ИГРА 18+

pack

ВАЖНО

!!Акция!!

Alien_RageХит недели

RePack

MK11
pack

Забери бонус

RePack

jed

!!Акция!!

Alien_Rage

RePack

fifa19

RePack

Assassins Creed: Odyssey

RePack

NEED FOR SPEED™ PAYBACK

4 сезон

9 сезон

Бесстыжие 9 сезон

Все сериалы

все сериалы на PB.wtf

RePack

FAR CRY 5
  

Горе от ума / Сезон: 1 / Серии: 1-8 из 8 (Динар Гарипов) [2019, Драма, WEB-DLRip] pb.wtf

Горе от ума через торрент pb.wtf

Размер: 1.83 GB | Добавлен: 10 мес. назад | Торрент скачан:52 раза
Скачать  

23-11-2019 07:40 Горе от ума Скачать торрент  

Горе от ума
Год выпуска: 2019
Страна: Россия
Жанр: Драма
Продолжительность: ~ 00:18:00
Субтитры: отсутствуют

Режиссер: Динар Гарипов



В ролях: Павел Прилучный, Мария Кожевникова, Фёдор Лавров, Даниил Спиваковский, Игорь Угольников, Сергей Медведев, Ольга Лерман, Сергей Юшкевич, Григорий Данцигер, Михаил Горевой, Юлия Сулес, Дмитрий Воронин (II), Алексей Войтюк, Георгий Рюмин, Анна Цуканова-Котт, Максим Казанцев, Субхан Мамедов, Михаил Богдасаров, Даниил Никитин (II), Мари Марк (II), Тагир Султанов, Зоя Мансурова

Описание: Погибает Чацкий — известный интернет-блогер с многомиллионной армией подписчиков. Следователю по особым делам — Порфирию Петрову — поручают в кратчайшие сроки выяснить все детали смерти Чацкого, т. к. его похороны могут спровоцировать общественные волнения и беспорядки. Выясняется, что Чацкий своими расследованиями и открытым хейтерством нажил себе довольно много врагов, каждый из которых становится подозреваемым в списке Порфирия. Усугубляет ситуацию смерть в прямом эфире блогера N2 — Базарова, а также пропажа из морга тела Чацкого. У Порфирия есть всего три дня, чтобы разобраться во всем происходящем в этом мире. А также в его виртуальной изнанке…

Качество: WEB-DLRip
Формат: AVI

Видео: 720x304 (2.37:1), 25 fps, XviD ~1850 kbps avg, 0.340 bit/pixel
Аудио: 48.0 kHz, AC3 Dolby Digital, 2/0 (L,R) ch, ~ 192 kbps
скриншот  скриншот  скриншот  скриншот  скриншот  

General
Complete name : D:\Gore.ot.uma.2019.WEB-DLRip.25Kuzmich\Gore.ot.uma.e01.WEB-DLRip.25Kuzmich.avi
Format : AVI
Format/Info : Audio Video Interleave
File size : 258 MiB
Duration : 17 min 31 s
Overall bit rate : 2 060 kb/s
Writing application : VirtualDubMod 1.5.10.3 | www.virtualdub-fr.org || (build 2550/release)
Writing library : VirtualDubMod build 2550/release

Video
ID : 0
Format : MPEG-4 Visual
Format profile : Advanced Simple@L5
Format settings : BVOP1
Format settings, BVOP : 1
Format settings, QPel : No
Format settings, GMC : No warppoints
Format settings, Matrix : Default (MPEG)
Codec ID : XVID
Codec ID/Hint : XviD
Duration : 17 min 31 s
Bit rate : 1 858 kb/s
Width : 720 pixels
Height : 304 pixels
Display aspect ratio : 2.35:1
Frame rate : 25.000 FPS
Color space : YUV
Chroma subsampling : 4:2:0
Bit depth : 8 bits
Scan type : Progressive
Compression mode : Lossy
Bits/(Pixel*Frame) : 0.340
Stream size : 233 MiB (90%)
Writing library : XviD 73

Audio
ID : 1
Format : AC-3
Format/Info : Audio Coding 3
Codec ID : 2000
Duration : 17 min 31 s
Bit rate mode : Constant
Bit rate : 192 kb/s
Channel(s) : 2 channels
Channel positions : Front: L R
Sampling rate : 48.0 kHz
Frame rate : 31.250 FPS (1536 SPF)
Bit depth : 16 bits
Compression mode : Lossy
Stream size : 24.1 MiB (9%)
Alignment : Split accross interleaves
Interleave, duration : 40 ms (1.00 video frame)
Interleave, preload duratio : 500 ms
Service kind : Complete Main

Внимание! Раздача ведётся путём добавления новых серий; при каждом добавлении создаётся новый торрент.
Чтобы начать докачку новой серии, пользователям необходимо сделать следующее:
1. Остановить скачивание;
2. Удалить старый торрент у себя из клиента (старые серии удалять не надо);
3. Скачать новый торрент и запустить его у себя в клиенте вместо старого, при этом указать клиенту путь в старую папку куда и должно происходить скачивание новых серий. Ваш клиент при этом должен произвести хеширование (проверку) старой папки и будет докачивать только те серии, которых у вас ещё нет. Старые серии при этом не удаляются, а продолжают раздаваться! Eсли вы уже удалили старые серии, то предотвратить повторную закачку старых серий можно, отжав галочку в соответствующих местах при запуске нового торрента.
pb.wtf



Скачать Горе от ума через торрент https://d.radikal.ru/d33/1911/82/e7a73a8a90b6.jpg Скачать фильм Горе от ума через торрент бесплантно в хорошем качестве Описание: Погибает Чацкий — известный интернет-блогер с многомиллионной армией подписчиков. Следователю по особым делам — Порфирию Петрову ... 10 10 7
Торрент: Зарегистрирован [2019-12-04 23:30] · скачан: 52 раз
Статус: √ проверено
Размер: 1.83 GB
Как cкачать? Как скачать Горе от ума через торрент | qTorrent

% Раздел Тема Автор DL S | L
Наши сериалы [ 4.3 GB ] Горе от ума / Сезон: 1 / Серии: 1-8 из 8 [2019 WEB-DL 1080p] bober100 Скачать
1 | 0
Наши сериалы [ 1.51 GB ] Горе от ума / Сезон: 1 / Серии: 1-8 из 8 [2019 WEB-DLRip-AVC] bober100 Скачать
2 | 0
Наши сериалы [ 3.17 GB ] Горе от ума / Сезон: 1 / Серии: 1-8 из 8 [2019 WEB-DL 720p] bober100 Скачать
1 | 0

28-11-2019 20:33  

Отключить всю рекламу на сайте

    Дорогой пользователь! Огромная просьба, поблагодарите релизера, оцените раздачу и оставьте свои комментарий, если Вы скачали Горе от ума через торрент бесплатно! Внесите свою лепту в развитие PiratBit!
    Комментировать посты могут только пользователи прошедшие не сложную регистрацию
    Показать сообщения:    

    Горе от ума через торрент
    Скачать бесплатно Горе от ума
    Горе от ума скачать торрент
    Горе от ума смотреть онлайн
    Cкачать фильм Горе от ума бесплатно
    Горе от ума скачать торрент в хорошем качестве
    Горе от ума смотреть онлайн бесплатно в хорошем качестве


    Вы не можете начинать темы
    Вы не можете отвечать на сообщения
    Вы не можете редактировать свои сообщения
    Вы не можете удалять свои сообщения
    Вы не можете голосовать в опросах
    Вы не можете прикреплять файлы к сообщениям
    Вы можете скачивать файлы