Всегда рабочее зеркало без VPN и Proxy просто перед .vidak.icu напиши любое слово или цифру, Пример http://o83r.vidak.icu

MVO

Лицензия

1 сезон

1

1 сезон

iTunes

1 сезон

13

1 сезон

Deluxe

pack

Рекомендуем

Пиратка

30

ВАЖНО

RePack

MK11

RePack

jed

RePack

fifa19

RePack

RDR2

RePack

NEED FOR SPEED™ PAYBACK

Кинопоиск HD

6 сезон

 Острые козырьки 6 сезон

Все сериалы

все сериалы на PB.wtf

RePack

FAR CRY 5
  
Magnet ссылка

Соломон Кейн / Solomon Kane (Майкл Дж. Бассетт) [2009, фэнтези, боевик, приключения, BDRip 720p] DUB [Лицензия] +AVO [Ю.Немахов] pb.wtf

Соломон Кейн через торрент pb.wtf

Раздают: 1 [ 0 KB/s ]
Размер: 5.76 GB | Добавлен: 2 года 7 мес. назад | Торрент скачан:226 раз
Смотреть онлайн Соломон Кейн | Скачать    Ребята, помогите собрать деньги на оплату серверов!!!

23-11-2019 16:37 Соломон Кейн Скачать торрент  

Соломон Кейн / Solomon Kane
Год выпуска: 2009
Страна: Франция, Чехия, Великобритания
Жанр: фэнтези, боевик, приключения
Продолжительность: 01:44:09
Перевод:
Дублированный | Лицензия Blu-ray RUS
Авторский (одноголосый) | Ю.Немахов
Субтитры: русские (x2), английские

Режиссер: Майкл Дж. Бассетт

rating

В ролях: Джеймс Пьюрфой (Solomon Kane), Макс фон Сюдов (Josiah Kane), Йен Уайт (Devil's Reaper), Джейсон Флеминг (Malachi), Рейчел Херд-Вуд (Meredith Crowthorn), Пит Постлетуэйт (William Crowthorn), Элис Крайдж (Katherine Crowthorn), Макензи Крук (Father Michael), Энтони Уилкс (Edward Crowthorn), Роберт Расселл (Abbott), Марк О’Нил (Kane's Soldier #1), Роберт Орр (Kane's Soldier #2)

Описание: По мотивам рассказов Роберта Ирвина Говарда. Соломон Кейн - английский солдат XVI века, который осознал, что его бесчеловечные и жестокие поступки навечно прокляли его душу. Вознамерившись искупить свои грехи, Кейн клянется жить в мире и добродетели, но когда на землю ступают темные силы, ему не остается ничего, как дать бой.

Качество: BDRip 720p
Формат: MKV

Видео: AVC, 1280x544 (2.35:1), 5998 kbps, 24 fps, 0,359 bpp
Аудио №1: AC3 / 5.1 / 48 kHz / 640 kbps / 16 bit | DUB - Blu-ray RUS
Аудио №2: AC3 / 5.1 / 48 kHz / 640 kbps / 16 bit | Ю.Немахов
Аудио №3: AC3 / 5.1 / 48 kHz / 640 kbps / 16 bit | ENG
скриншот  скриншот  скриншот  

скриншот  скриншот  скриншот  

Общее
Уникальный идентификатор : 235833067618088086801523655669589494049 (0xB16BCBF33C6DB2EE95BAF6E64C244921)
Полное имя : D:\Solomon.Keyn.2009.2xRus.Eng.BDRip.720p.-HELLYWOOD.mkv
Формат : Matroska
Версия формата : Version 4 / Version 2
Размер файла : 5,76 Гбайт
Продолжительность : 1 ч. 44 м.
Общий поток : 7917 Кбит/сек
Название фильма : Solomon Kane (2009)
Дата кодирования : UTC 2017-05-05 08:09:17
Программа кодирования : mkvmerge v5.9.0 ('On The Loose') built on Dec 15 2012 16:39:58
Библиотека кодирования : libebml v1.3.0 + libmatroska v1.4.0

Видео
Идентификатор : 1
Формат : AVC
Формат/Информация : Advanced Video Codec
Профиль формата : High@L4.1
Параметр CABAC формата : Да
Параметр RefFrames формата : 9 кадров
Идентификатор кодека : V_MPEG4/ISO/AVC
Продолжительность : 1 ч. 44 м.
Битрейт : 5998 Кбит/сек
Ширина : 1280 пикселей
Высота : 544 пикселя
Соотношение сторон : 2,35:1
Режим частоты кадров : Постоянный
Частота кадров : 24,000 кадра/сек
Цветовое пространство : YUV
Субдискретизация насыщенности : 4:2:0
Битовая глубина : 8 бит
Тип развёртки : Прогрессивная
Бит/(Пиксели*Кадры) : 0.359
Размер потока : 4,25 Гбайт (74%)
Заголовок : potroks
Библиотека кодирования : x264 core 146 r2538 121396c
Настройки программы : cabac=1 / ref=9 / deblock=1:-3:-3 / analyse=0x3:0x113 / me=umh / subme=11 / psy=1 / psy_rd=0.97:0.00 / mixed_ref=1 / me_range=56 / chroma_me=1 / trellis=2 / 8x8dct=1 / cqm=0 / deadzone=21,11 / fast_pskip=0 / chroma_qp_offset=-2 / threads=9 / lookahead_threads=2 / sliced_threads=0 / nr=0 / decimate=0 / interlaced=0 / bluray_compat=0 / constrained_intra=0 / bframes=10 / b_pyramid=2 / b_adapt=2 / b_bias=0 / direct=3 / weightb=1 / open_gop=0 / weightp=2 / keyint=240 / keyint_min=23 / scenecut=40 / intra_refresh=0 / rc_lookahead=60 / rc=2pass / mbtree=0 / bitrate=5998 / ratetol=1.0 / qcomp=0.70 / qpmin=0 / qpmax=69 / qpstep=4 / cplxblur=20.0 / qblur=0.5 / vbv_maxrate=14000 / vbv_bufsize=14000 / nal_hrd=none / filler=0 / ip_ratio=1.40 / pb_ratio=1.30 / aq=1:0.80
Язык : English
Default : Да
Forced : Нет

Аудио #1
Идентификатор : 2
Формат : AC-3
Формат/Информация : Audio Coding 3
Расширение режима : CM (complete main)
Параметр Endianness формата : Big
Идентификатор кодека : A_AC3
Продолжительность : 1 ч. 44 м.
Вид битрейта : Постоянный
Битрейт : 640 Кбит/сек
Каналы : 6 каналов
Расположение каналов : Front: L C R, Side: L R, LFE
Частота : 48,0 КГц
Частота кадров : 31,250 кадров/сек (1536 spf)
Метод сжатия : С потерями
Размер потока : 477 Мбайт (8%)
Заголовок : Dub | DD 5.1 @ 640 kbps - Blu-ray RUS
Язык : Russian
Default : Да
Forced : Нет

Аудио #2
Идентификатор : 3
Формат : AC-3
Формат/Информация : Audio Coding 3
Расширение режима : CM (complete main)
Параметр Endianness формата : Big
Идентификатор кодека : A_AC3
Продолжительность : 1 ч. 44 м.
Вид битрейта : Постоянный
Битрейт : 640 Кбит/сек
Каналы : 6 каналов
Расположение каналов : Front: L C R, Side: L R, LFE
Частота : 48,0 КГц
Частота кадров : 31,250 кадров/сек (1536 spf)
Метод сжатия : С потерями
Размер потока : 477 Мбайт (8%)
Заголовок : AVO | DD 5.1 @ 640 kbps - Yu.Nemahov
Язык : Russian
Default : Нет
Forced : Нет

Аудио #3
Идентификатор : 4
Формат : AC-3
Формат/Информация : Audio Coding 3
Расширение режима : CM (complete main)
Параметр Endianness формата : Big
Идентификатор кодека : A_AC3
Продолжительность : 1 ч. 44 м.
Вид битрейта : Постоянный
Битрейт : 640 Кбит/сек
Каналы : 6 каналов
Расположение каналов : Front: L C R, Side: L R, LFE
Частота : 48,0 КГц
Частота кадров : 31,250 кадров/сек (1536 spf)
Метод сжатия : С потерями
Размер потока : 477 Мбайт (8%)
Заголовок : Original | DD 5.1 @ 640 kbps
Язык : English
Default : Нет
Forced : Нет

Текст #1
Идентификатор : 5
Формат : UTF-8
Идентификатор кодека : S_TEXT/UTF8
Идентификатор кодека/Информация : UTF-8 Plain Text
Заголовок : Blu-ray
Язык : Russian
Default : Нет
Forced : Нет

Текст #2
Идентификатор : 6
Формат : UTF-8
Идентификатор кодека : S_TEXT/UTF8
Идентификатор кодека/Информация : UTF-8 Plain Text
Заголовок : Voronine [SDH]
Язык : Russian
Default : Нет
Forced : Нет

Текст #3
Идентификатор : 7
Формат : UTF-8
Идентификатор кодека : S_TEXT/UTF8
Идентификатор кодека/Информация : UTF-8 Plain Text
Заголовок : Full
Язык : English
Default : Нет
Forced : Нет

Меню
00:00:00.000 : en:Мерзкие язычники
00:10:41.958 : en:Сны
00:15:19.833 : en:Семья
00:30:10.042 : en:Дети дьявола
00:35:32.500 : en:Я вымощу себе дорогу в ад
00:49:08.167 : en:Восхваление Бога
01:01:06.292 : en:Она пропала
01:04:03.917 : en:Распять его
01:09:37.875 : en:Добро пожаловать домой
01:17:59.167 : en:Зеркала и магия
01:23:45.750 : en:Искупление
01:35:15.167 : en:Финальные титры

pb.wtf



Скачать Соломон Кейн через торрент http://i91.fastpic.ru/big/2017/0505/47/981748a0b2eea1ececf8a43355603a47.png Скачать, смотреть онлайн Соломон Кейн бесплантно в хорошем качестве Описание: По мотивам рассказов Роберта Ирвина Говарда. Соломон Кейн - английский солдат XVI века, который осознал, что его бесчеловечные и ... 10 10 5
Торрент: Зарегистрирован [2019-11-23 16:37] · скачан: 226 раз
Статус: √ проверено
Размер: 5.76 GB
Как cкачать? Как скачать Соломон Кейн через торрент | UTorrent

% Раздел Тема Автор DL S | L
Фильмы (HD 720p, 1080p) (48-60 fps) [ 3.2 GB ] Соломон Кейн / Solomon Kane [Майкл Дж. Бассетт] [2009 WEB-DLRip - HEVC 1080p 10 bit 60 FPS DUB] dd2d3 Скачать
6 | 0
Фильмы (HD 720p, 1080p) (48-60 fps) [ 3.99 GB ] Соломон Кейн / Solomon Kane [2009 WEB-DLRip 720p / 60 FPS ] от R.G. HD-Films slaventi-69 Скачать
1 | 0
Фильмы 2009 [ 1.46 GB ] Соломон Кейн / Solomon Kane [2009 BDRip-AVC] DUB + Sub potroks Скачать
2 | 0
Фильмы (Blu-ray, BD-Remux, HDDVD) [ 40.64 GB ] Соломон Кейн / Solomon Kane [2009 Blu-ray 1080p] DUB Зайчина Скачать
1 | 0
Фильмы 2009 [ 1.45 GB ] Соломон Кейн / Solomon Kane [2009 HDRip] DUB -=BIGBOSS=- Скачать
1 | 0
Фильмы 2009 [ 1.46 GB ] Соломон Кейн / Solomon Kane [2009 HDRip лицензия] SD Скачать
1 | 0
Фильмы [HD 720p, 1080p] (Хороший звук DUB, MVO) [ 6.29 GB ] Соломон Кейн / Solomon Kane [2009 BDRip ] k@rl$on Скачать
1 | 0

28-11-2019 20:33  

Отключить всю рекламу на сайте

24-11-2019 20:54 Соломон Кейн Скачать торрент  

Фильм кстати очень даже хорош.pb.wtf



25-11-2019 18:46 Соломон Кейн Скачать торрент  

alex_rules писал(а):

Фильм кстати очень даже хорош.

pb.wtf



    Дорогой пользователь! Огромная просьба, поблагодарите релизера, оцените раздачу и оставьте свои комментарий, если Вы скачали Соломон Кейн через торрент бесплатно!
    Комментировать посты могут только пользователи прошедшие не сложную регистрацию
    Показать сообщения:    

    Соломон Кейн через торрент
    Скачать бесплатно Соломон Кейн
    Соломон Кейн скачать торрент
    Соломон Кейн смотреть онлайн
    Cкачать фильм Соломон Кейн бесплатно
    Соломон Кейн скачать торрент в хорошем качестве
    Соломон Кейн смотреть онлайн бесплатно в хорошем качестве


    Вы не можете начинать темы
    Вы не можете отвечать на сообщения
    Вы не можете редактировать свои сообщения
    Вы не можете удалять свои сообщения
    Вы не можете голосовать в опросах
    Вы не можете прикреплять файлы к сообщениям
    Вы можете скачивать файлы