Лицензия

MVO

1

1 сезон

Лицензия

Лицензия

13

MVO

1 сезон

Ultimate

pack

Рекомендуем

30

Repack

ВАЖНО

ВАЖНО

Ghostwire

RePack

jed

RePack

fifa19

RePack

RDR2

RePack

NEED FOR SPEED™ PAYBACK

RePack

Кинопоиск HD

 Острые козырьки 6 сезон

6 сезон

FAR CRY 6

RePack

Лицензия

MVO

1

1 сезон

1 сезон

Лицензия

  

Кровь невинных / Innocent Blood (Джон Лэндис) [1992 г., комедия, ужасы, мистика, BDRip 1080p] 2xMVO, DVO, 3xAVO

Кровь невинных через торрент pb.wtf

Размер: 9.74 GB | Добавлен: 2 года 10 мес. назад | Торрент скачан:28 раз
Смотреть онлайн Кровь невинных | Скачать   

23-11-2019 21:44 Кровь невинных Скачать торрент  

Кровь невинных / Innocent Blood
Год выпуска: 1992

Страна: США

Жанр: Комедия, ужасы, мистика

Продолжительность: 01:52:52

Перевод: Профессиональный (многоголосый), профессиональный (двухголосый), авторский (одноголосый)

Субтитры: Русские, английские

Режиссер: Джон Лэндис

rating

В ролях: Анн Парийо, Роберт Лоджа, Энтони ЛаПалья, Дэвид Провэл, Чазз Пальминтери, Луис Гусман, Анджела Бассетт, Илэйн Кэйган, Рокко Систо, Лео Берместер, Фрэнк Оз, Дарио Ардженто, Линни Куигли, Тони Сирико, Ким Коутс, Маршалл Белл, Дон Риклз, Рон Томас, Том Савини

Описание: Девушка-вампирша поужинала гангстером-мафиози, пожалев при этом парня с грустными глазами по имени Джо, который, между прочим, был секретным агентом ФБР, проникшим в преступную семью гангстера Салли-Акулы. Ее следующей жертвой становится сам Салли, успевший всадить ей две пули в живот во время их свидания. У Джо сорвался арест, а его бывшие "друзья" по банде поклялись его убить. Что делать с этими странными убийствами, при которых тела не остывают, а нагреваются, куда пропадает кровь, а паталогоанатом боится даже говорить? После того, как кровавая красавица в обличии вампирши предупреждает Джо, чтобы он не лез к ней, у него более не остается сомнений. А в морге оживает труп Салли-Акулы...
Интересные факты о фильме: Режиссер Джон Лэндис, поставивший такие фильмы, как "Братья Блюз", "Оскар", "Поездка в Америку", "Шпионы как мы", пригласил в эпизодические роли своих друзей Сэма Рейми и Дарио Ардженто, - не менее знаменитых режиссеров фильмов-ужасов. Спецэффекты грима исполнены мастером своего дела Стивом Джонсоном.
Качество: BDRip 1080p
Формат: MKV
Видео: MPEG-4 AVC, 10000 Кбит/с, 1920х1080
Аудио#1: Русский, AC-3, 2 ch, 224 Кбит/с - MVO (НТВ)
Аудио#2: Русский, AC-3, 2 ch, 224 Кбит/с - MVO (ТВ3)
Аудио#3: Русский, AC-3, 2 ch, 224 Кбит/с - DVO
Аудио#4: Русский, AC-3, 2 ch, 224 Кбит/с - AVO (А. Гаврилов)
Аудио#5: Русский, AC-3, 2 ch, 224 Кбит/с - AVO (Ю. Живов)
Аудио#6: Русский, AC-3, 2 ch, 224 Кбит/с - AVO (С. Кузнецов)
Аудио#7: Английский, DTS, 2 ch, 768 Кбит/с
Format : Matroska
Format version : Version 4 / Version 2
File size : 9.74 GiB
Duration : 1h 54mn
Overall bit rate : 12.1 Mbps
Movie name : Innocent Blood
Writing library : Lavf57.71.100

Video
ID : 1
Format : AVC
Format/Info : Advanced Video Codec
Format profile : [email protected]
Format settings, CABAC : Yes
Format settings, ReFrames : 4 frames
Codec ID : V_MPEG4/ISO/AVC
Duration : 1h 54mn
Bit rate : 10 000 Kbps
Width : 1 920 pixels
Height : 1 080 pixels
Display aspect ratio : 16:9
Frame rate mode : Constant
Frame rate : 23.976 fps
Color space : YUV
Chroma subsampling : 4:2:0
Bit depth : 8 bits
Scan type : Progressive
Bits/(Pixel*Frame) : 0.201
Stream size : 7.85 GiB (81%)
Writing library : x264 core 152 r2851M ba24899
Encoding settings : cabac=1 / ref=4 / deblock=1:-3:-3 / analyse=0x3:0x113 / me=umh / subme=10 / psy=1 / psy_rd=1.05:0.10 / mixed_ref=1 / me_range=24 / chroma_me=1 / trellis=2 / 8x8dct=1 / cqm=0 / deadzone=21,11 / fast_pskip=0 / chroma_qp_offset=-3 / threads=5 / lookahead_threads=1 / sliced_threads=0 / nr=0 / decimate=1 / interlaced=0 / bluray_compat=0 / constrained_intra=0 / bframes=8 / b_pyramid=2 / b_adapt=2 / b_bias=0 / direct=1 / weightb=1 / open_gop=0 / weightp=2 / keyint=230 / keyint_min=23 / scenecut=40 / intra_refresh=0 / rc=2pass / mbtree=0 / bitrate=10000 / ratetol=1.0 / qcomp=0.70 / qpmin=3 / qpmax=69 / qpstep=4 / cplxblur=20.0 / qblur=0.5 / ip_ratio=1.40 / pb_ratio=1.30 / aq=2:1.00
Default : Yes
Forced : No

Audio #1
ID : 2
Format : AC-3
Format/Info : Audio Coding 3
Mode extension : CM (complete main)
Format settings, Endianness : Big
Codec ID : A_AC3
Duration : 1h 54mn
Bit rate mode : Constant
Bit rate : 224 Kbps
Channel(s) : 2 channels
Channel positions : Front: L R
Sampling rate : 48.0 KHz
Bit depth : 16 bits
Compression mode : Lossy
Stream size : 184 MiB (2%)
Title : MVO NTV AC3 2.0 224 kbps
Language : Russian
Default : Yes
Forced : No

Audio #2
ID : 3
Format : AC-3
Format/Info : Audio Coding 3
Mode extension : CM (complete main)
Format settings, Endianness : Big
Codec ID : A_AC3
Duration : 1h 54mn
Bit rate mode : Constant
Bit rate : 224 Kbps
Channel(s) : 2 channels
Channel positions : Front: L R
Sampling rate : 48.0 KHz
Bit depth : 16 bits
Compression mode : Lossy
Stream size : 184 MiB (2%)
Title : MVO TV3 AC3 2.0 224 kbps
Language : Russian
Default : No
Forced : No

Audio #3
ID : 4
Format : AC-3
Format/Info : Audio Coding 3
Mode extension : CM (complete main)
Format settings, Endianness : Big
Codec ID : A_AC3
Duration : 1h 54mn
Bit rate mode : Constant
Bit rate : 224 Kbps
Channel(s) : 2 channels
Channel positions : Front: L R
Sampling rate : 48.0 KHz
Bit depth : 16 bits
Compression mode : Lossy
Stream size : 184 MiB (2%)
Title : DVO AC3 2.0 224 kbps
Language : Russian
Default : No
Forced : No

Audio #4
ID : 5
Format : AC-3
Format/Info : Audio Coding 3
Mode extension : CM (complete main)
Format settings, Endianness : Big
Codec ID : A_AC3
Duration : 1h 54mn
Bit rate mode : Constant
Bit rate : 224 Kbps
Channel(s) : 2 channels
Channel positions : Front: L R
Sampling rate : 48.0 KHz
Bit depth : 16 bits
Compression mode : Lossy
Stream size : 184 MiB (2%)
Title : Gavrilov AC3 2.0 224 kbps
Language : Russian
Default : No
Forced : No

Audio #5
ID : 6
Format : AC-3
Format/Info : Audio Coding 3
Mode extension : CM (complete main)
Format settings, Endianness : Big
Codec ID : A_AC3
Duration : 1h 54mn
Bit rate mode : Constant
Bit rate : 224 Kbps
Channel(s) : 2 channels
Channel positions : Front: L R
Sampling rate : 48.0 KHz
Bit depth : 16 bits
Compression mode : Lossy
Stream size : 184 MiB (2%)
Title : Zhivov AC3 2.0 224 kbps
Language : Russian
Default : No
Forced : No

Audio #6
ID : 7
Format : AC-3
Format/Info : Audio Coding 3
Mode extension : CM (complete main)
Format settings, Endianness : Big
Codec ID : A_AC3
Duration : 1h 54mn
Bit rate mode : Constant
Bit rate : 224 Kbps
Channel(s) : 2 channels
Channel positions : Front: L R
Sampling rate : 48.0 KHz
Bit depth : 16 bits
Compression mode : Lossy
Stream size : 184 MiB (2%)
Title : Kuznetsov AC3 2.0 224 kbps
Language : Russian
Default : No
Forced : No

Audio #7
ID : 8
Format : DTS
Format/Info : Digital Theater Systems
Mode : 16
Format settings, Endianness : Big
Codec ID : A_DTS
Duration : 1h 54mn
Bit rate mode : Constant
Bit rate : 768 Kbps
Channel(s) : 2 channels
Channel positions : Front: L R
Sampling rate : 48.0 KHz
Bit depth : 16 bits
Compression mode : Lossy
Stream size : 632 MiB (6%)
Title : Original FLAC 2.0 ~1359 kbps
Language : English
Default : No
Forced : No

Text #1
ID : 9
Format : UTF-8
Codec ID : S_TEXT/UTF8
Codec ID/Info : UTF-8 Plain Text
Title : FORCE
Language : Russian
Default : Yes
Forced : Yes

Text #2
ID : 10
Format : UTF-8
Codec ID : S_TEXT/UTF8
Codec ID/Info : UTF-8 Plain Text
Language : English
Default : Yes
Forced : No

Text #3
ID : 11
Format : UTF-8
Codec ID : S_TEXT/UTF8
Codec ID/Info : UTF-8 Plain Text
Title : SDH
Language : English
Default : No
Forced : No

скриншот  

скриншот  

скриншот  

скриншот  




Скачать Кровь невинных через торрент https://pic1.kartinco.top/images/12/ks7pu.jpg Скачать, смотреть онлайн Кровь невинных бесплантно в хорошем качестве Описание: Девушка-вампирша поужинала гангстером-мафиози, пожалев при этом парня с грустными глазами по имени Джо, который, между прочим, ... 10 10 2
Торрент: Зарегистрирован [2019-11-23 21:44] · скачан: 28 раз
Статус: √ проверено
Размер: 9.74 GB
Как cкачать? Как скачать Кровь невинных через торрент | UTorrent

28-11-2019 20:33  

Отключить вcю реклaмy на сайте

    Дорогой пользователь! Огромная просьба, поблагодарите релизера, оцените раздачу и оставьте свои комментарий, если Вы скачали Кровь невинных через торрент бесплатно!!
    Комментировать посты могут только пользователи прошедшие не сложную регистрацию
    Показать сообщения:    


    Кровь невинных через торрент
    Скачать бесплатно Кровь невинных
    Кровь невинных скачать торрент
    Кровь невинных смотреть онлайн
    Cкачать фильм Кровь невинных бесплатно
    Кровь невинных скачать торрент в хорошем качестве
    Кровь невинных смотреть онлайн бесплатно в хорошем качестве
    Вы не можете начинать темы
    Вы не можете отвечать на сообщения
    Вы не можете редактировать свои сообщения
    Вы не можете удалять свои сообщения
    Вы не можете голосовать в опросах
    Вы не можете прикреплять файлы к сообщениям
    Вы можете скачивать файлы