Ссылка на приватное зеркало нашего сайта всего за 1$. Внимание количество ограничено!!!

2 сезон

iTunes

1 сезон

1

2 сезон

2 сезон

iTunes

1 сезон

RePack

30

Новинка

ВАЖНО

ИГРА 18+

pack

RePack

MK11
pack

Забери бонус

RePack

jed

!!Акция!!

Alien_Rage

RePack

fifa19

RePack

Assassins Creed: Odyssey

RePack

NEED FOR SPEED™ PAYBACK

4 сезон

9 сезон

Бесстыжие 9 сезон

Все сериалы

все сериалы на PB.wtf

RePack

FAR CRY 5
  

Время убивать / A Time to Kill (Джоэл Шумахер) [1996, Триллер, драма, криминал, BDRip 1080p] 2xMVO (rus, ukr) +AVO pb.wtf

Время убивать через торрент pb.wtf

Размер: 11.49 GB | Добавлен: 1 год назад | Торрент скачан:103 раза
Скачать  

24-11-2019 01:23 Время убивать Скачать торрент  

Время убивать / A Time to Kill
Год выпуска: 1996
Страна: США
Жанр: Триллер, драма, криминал
Продолжительность: 02:29:29
Перевод: Профессиональный (многоголосый), Авторский
Субтитры: Русские, английские

Режиссер: Джоэл Шумахер

rating

В ролях: Мэттью МакКонахи, Сандра Буллок, Сэмюэл Л. Джексон, Кевин Спейси, Оливер Платт, Чарльз С. Даттон, Бренда Фрикер, Дональд Сазерленд, Кифер Сазерленд, Патрик МакГуэн

Описание: Зверски изнасилована десятилетняя девочка. Отец девочки расстреливает подонков.
Ему грозит газовая камера. Сможет ли блестящий адвокат, не проигравший ни одного дела, добиться признания невиновности своего клиента?

Качество: BDRip 1080p
Формат: MKV

Видео: MPEG-4 AVC, ~ 1908x800 (23,976 fps), 9146 kbps
Аудио#1: Russian: AC3, 384 Kbps (6 ch) Профессиональный многоголосый (Twister)
Аудио#2: Russian: AC3, 192 Kbps (2 ch) Профессиональный многоголосый (ТНТ)
Аудио#3: Russian: AC3, 448 Kbps (6 ch) Авторский (Ю.Живов)
Аудио#4: Ukrainian: AC3, 192 Kbps (2 ch) Профессиональный многоголосый (Сінемакс)
Аудио#5: English: AC3, 640 Kbps (6 ch) Original
скриншот  скриншот  скриншот  

скриншот  скриншот  скриншот  

Уникальный идентификатор : 213894269753192296296374442586129726978 (0xA0EA89B4253C24AD9B9E9FCFB3AA7E02)
Полное имя : A.Time.to.Kill.1996.х264.BDRip.1080р.mkv
Формат : Matroska
Версия формата : Version 4 / Version 2
Размер файла : 11,5 Гбайт
Продолжительность : 2 ч. 29 м.
Общий поток : 11,0 Мбит/сек
Название фильма : ☭WIDDER☭
Дата кодирования : UTC 2013-11-14 12:18:25
Программа кодирования : mkvmerge v6.3.0 ('You can't stop me!') built on Jun 28 2013 20:09:41
Библиотека кодирования : libebml v1.3.0 + libmatroska v1.4.0

Видео
Идентификатор : 1
Формат : AVC
Формат/Информация : Advanced Video Codec
Профиль формата : High@L4.1
Параметр CABAC формата : Да
Параметр ReFrames формата : 5 кадров
Идентификатор кодека : V_MPEG4/ISO/AVC
Продолжительность : 2 ч. 29 м.
Битрейт : 9146 Кбит/сек
Ширина : 1908 пикселей
Высота : 800 пикселей
Соотношение сторон : 2,40:1
Режим частоты кадров : Постоянный
Частота кадров : 23,976 кадра/сек
Цветовое пространство : YUV
Субдискретизация насыщенности : 4:2:0
Битовая глубина : 8 бит
Тип развёртки : Прогрессивная
Бит/(Пиксели*Кадры) : 0.250
Размер потока : 9,32 Гбайт (81%)
Заголовок : Время убивать / A Time to Kill (1996)
Библиотека кодирования : x264 core 140 r2377 1ca7bb9
Настройки программы : cabac=1 / ref=5 / deblock=1:-3:-3 / analyse=0x3:0x133 / me=umh / subme=11 / psy=1 / psy_rd=1.00:0.00 / mixed_ref=1 / me_range=48 / chroma_me=1 / trellis=2 / 8x8dct=1 / cqm=0 / deadzone=21,11 / fast_pskip=0 / chroma_qp_offset=-2 / threads=12 / lookahead_threads=1 / sliced_threads=0 / nr=0 / decimate=1 / interlaced=0 / bluray_compat=0 / constrained_intra=0 / bframes=6 / b_pyramid=2 / b_adapt=2 / b_bias=0 / direct=3 / weightb=1 / open_gop=0 / weightp=2 / keyint=240 / keyint_min=23 / scenecut=40 / intra_refresh=0 / rc_lookahead=60 / rc=2pass / mbtree=0 / bitrate=9146 / ratetol=1.0 / qcomp=0.60 / qpmin=0 / qpmax=69 / qpstep=4 / cplxblur=20.0 / qblur=0.5 / vbv_maxrate=50000 / vbv_bufsize=62500 / nal_hrd=none / filler=0 / ip_ratio=1.40 / pb_ratio=1.30 / aq=1:0.80
Язык : English
Default : Да
Forced : Нет

Аудио #1
Идентификатор : 2
Формат : AC-3
Формат/Информация : Audio Coding 3
Расширение режима : CM (complete main)
Параметр Endianness формата : Big
Идентификатор кодека : A_AC3
Продолжительность : 2 ч. 29 м.
Вид битрейта : Постоянный
Битрейт : 384 Кбит/сек
Каналы : 6 каналов
Расположение каналов : Front: L C R, Side: L R, LFE
Частота : 48,0 КГц
Битовая глубина : 16 бит
Метод сжатия : С потерями
Размер потока : 411 Мбайт (3%)
Заголовок : AC3, 384 Kbps (6 ch) (Twister)
Язык : Russian
Default : Да
Forced : Нет

Аудио #2
Идентификатор : 3
Формат : AC-3
Формат/Информация : Audio Coding 3
Расширение режима : CM (complete main)
Параметр Endianness формата : Big
Идентификатор кодека : A_AC3
Продолжительность : 2 ч. 29 м.
Вид битрейта : Постоянный
Битрейт : 192 Кбит/сек
Каналы : 2 канала
Расположение каналов : Front: L R
Частота : 48,0 КГц
Битовая глубина : 16 бит
Метод сжатия : С потерями
Размер потока : 205 Мбайт (2%)
Заголовок : AC3, 192 Kbps (2 ch) (ТНТ)
Язык : Russian
Default : Нет
Forced : Нет

Аудио #3
Идентификатор : 4
Формат : AC-3
Формат/Информация : Audio Coding 3
Расширение режима : CM (complete main)
Параметр Endianness формата : Big
Идентификатор кодека : A_AC3
Продолжительность : 2 ч. 29 м.
Вид битрейта : Постоянный
Битрейт : 448 Кбит/сек
Каналы : 6 каналов
Расположение каналов : Front: L C R, Side: L R, LFE
Частота : 48,0 КГц
Битовая глубина : 16 бит
Метод сжатия : С потерями
Размер потока : 479 Мбайт (4%)
Заголовок : AC3, 448 Kbps (6 ch) Авторский (Ю.Живов)
Язык : Russian
Default : Нет
Forced : Нет

Аудио #4
Идентификатор : 5
Формат : AC-3
Формат/Информация : Audio Coding 3
Расширение режима : CM (complete main)
Параметр Endianness формата : Big
Идентификатор кодека : A_AC3
Продолжительность : 2 ч. 29 м.
Вид битрейта : Постоянный
Битрейт : 192 Кбит/сек
Каналы : 2 канала
Расположение каналов : Front: L R
Частота : 48,0 КГц
Битовая глубина : 16 бит
Метод сжатия : С потерями
Размер потока : 205 Мбайт (2%)
Заголовок : AC3, 192 Kbps (2 ch) (Сінемакс)
Язык : Ukrainian
Default : Нет
Forced : Нет

Аудио #5
Идентификатор : 6
Формат : AC-3
Формат/Информация : Audio Coding 3
Расширение режима : CM (complete main)
Параметр Endianness формата : Big
Идентификатор кодека : A_AC3
Продолжительность : 2 ч. 29 м.
Вид битрейта : Постоянный
Битрейт : 640 Кбит/сек
Каналы : 6 каналов
Расположение каналов : Front: L C R, Side: L R, LFE
Частота : 48,0 КГц
Битовая глубина : 16 бит
Метод сжатия : С потерями
Размер потока : 684 Мбайт (6%)
Заголовок : AC3, 640 Kbps (6 ch) Original
Язык : English
Default : Нет
Forced : Нет

Текст #1
Идентификатор : 7
Формат : UTF-8
Идентификатор кодека : S_TEXT/UTF8
Идентификатор кодека/Информация : UTF-8 Plain Text
Язык : Russian
Default : Нет
Forced : Нет

Текст #2
Идентификатор : 8
Формат : UTF-8
Идентификатор кодека : S_TEXT/UTF8
Идентификатор кодека/Информация : UTF-8 Plain Text
Язык : English
Default : Нет
Forced : Нет

Меню
00:00:00.000 : en:Chapter 1
00:03:35.131 : en:Chapter 2
00:09:15.554 : en:Chapter 3
00:15:17.333 : en:Chapter 4
00:19:47.519 : en:Chapter 5
00:25:29.861 : en:Chapter 6
00:27:13.923 : en:Chapter 7
00:29:12.584 : en:Chapter 8
00:31:45.987 : en:Chapter 9
00:36:45.161 : en:Chapter 10
00:37:39.548 : en:Chapter 11
00:40:30.469 : en:Chapter 12
00:42:48.524 : en:Chapter 13
00:45:32.521 : en:Chapter 14
00:48:48.383 : en:Chapter 15
00:50:47.002 : en:Chapter 16
00:52:55.630 : en:Chapter 17
01:00:28.082 : en:Chapter 18
01:01:03.076 : en:Chapter 19
01:03:51.744 : en:Chapter 20
01:05:55.117 : en:Chapter 21
01:07:13.112 : en:Chapter 22
01:11:23.237 : en:Chapter 23
01:15:55.759 : en:Chapter 24
01:18:18.860 : en:Chapter 25
01:23:24.374 : en:Chapter 26
01:25:46.141 : en:Chapter 27
01:27:39.420 : en:Chapter 28
01:31:15.553 : en:Chapter 29
01:35:33.728 : en:Chapter 30
01:37:12.576 : en:Chapter 31
01:38:43.667 : en:Chapter 32
01:39:51.568 : en:Chapter 33
01:44:13.789 : en:Chapter 34
01:49:01.368 : en:Chapter 35
01:54:42.458 : en:Chapter 36
01:58:42.573 : en:Chapter 37
02:00:17.251 : en:Chapter 38
02:02:38.267 : en:Chapter 39
02:06:20.406 : en:Chapter 40
02:08:31.453 : en:Chapter 41
02:11:45.230 : en:Chapter 42
02:13:19.157 : en:Chapter 43
02:21:05.331 : en:Chapter 44
02:23:01.447 : en:Chapter 45
02:25:16.499 : en:Chapter 46
02:29:29.585 : en:Chapter 47
_______________________________________________________
x264 [info]: frame I:1736 Avg QP:15.66 size:187845
x264 [info]: frame P:45226 Avg QP:17.82 size: 81701
x264 [info]: frame B:168098 Avg QP:19.91 size: 37056
x264 [info]: consecutive B-frames: 2.1% 2.3% 4.8% 15.9% 21.0% 47.1% 6.9%

pb.wtf



Скачать Время убивать через торрент http://i054.radikal.ru/1311/76/aa5d1f5f5b67.jpg Скачать фильм Время убивать через торрент бесплантно в хорошем качестве Описание: Зверски изнасилована десятилетняя девочка. Отец девочки расстреливает подонков.Ему грозит газовая камера. Сможет ли блестящий ... 9.5 10 6
Торрент: Зарегистрирован [2019-11-24 01:23] · скачан: 103 раз
Статус: √ проверено
Размер: 11.49 GB
Как cкачать? Как скачать Время убивать через торрент | qTorrent

28-11-2019 20:33  

Отключить всю рекламу на сайте

    Дорогой пользователь! Огромная просьба, поблагодарите релизера, оцените раздачу и оставьте свои комментарий, если Вы скачали Время убивать через торрент бесплатно! Внесите свою лепту в развитие PiratBit!
    Комментировать посты могут только пользователи прошедшие не сложную регистрацию
    Показать сообщения:    

    Время убивать через торрент
    Скачать бесплатно Время убивать
    Время убивать скачать торрент
    Время убивать смотреть онлайн
    Cкачать фильм Время убивать бесплатно
    Время убивать скачать торрент в хорошем качестве
    Время убивать смотреть онлайн бесплатно в хорошем качестве


    Вы не можете начинать темы
    Вы не можете отвечать на сообщения
    Вы не можете редактировать свои сообщения
    Вы не можете удалять свои сообщения
    Вы не можете голосовать в опросах
    Вы не можете прикреплять файлы к сообщениям
    Вы можете скачивать файлы