Ссылка на приватное зеркало всего за 1$. Внимание количество ограничено!!!

OK

1+1

iTunes

мы

OK

1

WEB-DLRip

Джокер

Пифагор

Ведьмак / The Witcher сериал

Лицензия

ПШазам

ОК

Оно 2

iTunes

30
pack

Вам бонус

ВАЖНО

!!Акция!!

Alien_RageХит недели

RePack

Resident Evil 21

ИГРА 18+

pack

RePack

jed

!!Акция!!

Alien_Rage

RePack

fifa19

RePack

Assassins Creed: Odyssey

RePack

NEED FOR SPEED™ PAYBACK

4 сезон

9 сезон

Бесстыжие 9 сезон

Все сериалы

все сериалы на PB.wtf

RePack

FAR CRY 5
  

День счастья (Иосиф Хейфиц) [1964, СССР, драма, мелодрама, DVDRip от AVP Studio] pb.wtf

День счастья через торрент pb.wtf

Раздают: 6 [ 0 KB/s ]
Размер: 745 MB | Добавлен: 1 мес. 24 д. назад | Торрент скачан:2 раза
Скачать  

24-11-2019 13:33 День счастья Скачать торрент  

День счастья
Страна: СССР
Производство: Ленфильм

Жанр: драма, мелодрама
Год выпуска: 1964
Продолжительность: 01:35:56

Перевод: Не требуется
Cубтитры: нет
Оригинальная аудиодорожка: русский

Режиссер: Иосиф Хейфиц

В ролях:
Тамара Сёмина, Алексей Баталов, Валентин Зубков, Николай Крючков, Лариса Голубкина, Иосиф Конопацкий, Людмила Глазова, С. Евстифеева, Владимир Липпарт, Анна Лисянская, Мария Призван-Соколова, Мария Самойлова, Павел Суханов, Иван Селянин, Владимир Тыкке, Георгий Штиль...
Об актёрах подробней

Описание:
Как правило, жизнь человека — это череда дней, плавно перетекающих из одного в другой. Но иногда случается, что один — самый обычный день кардинально изменяет направление этого размеренного течения. Врач «скорой помощи» ехал в автобусе и встретил прекрасную незнакомку. Под надуманным предлогом познакомился с ней, (они оказались полными тезками: она — Александра Николаевна, он — Александр Николаевич), потерял в толпе, и с тех пор всегда искал встречи с ней…

Источник: DVD9 R5
Качество видео: DVDRip
Формат видео: AVI

Видео: 704х304 (2,35:1), 25,000 fps, XviD ~ 883 kbps avg, 0.165 bit/pixel
Аудио: 48 kHz, Dolby Digital AC3 2.0, 192 kbps

Раздача от:
Общее
Полное имя : Den.Schastya.1964.DVDRip_[New-team]_by_AVP_Studio.avi
Формат : AVI
Формат/Информация : Audio Video Interleave
Размер файла : 745 Мбайт
Продолжительность : 1 ч. 35 м.
Общий поток : 1085 Кбит/сек
Программа кодирования : VirtualDubMod 1.5.10.3 | www.virtualdub-fr.org || (build 2550/release)
Библиотека кодирования : VirtualDubMod build 2550/release

Видео
Идентификатор : 0
Формат : MPEG-4 Visual
Профиль формата : Advanced Simple@L5
Настройки формата : BVOP1 / Custom Matrix
Параметр BVOP формата : 1
Параметр QPel формата : Нет
Параметр GMC формата : Без точки перехода
Параметр матрицы формата : Выборочная
Идентификатор кодека : XVID
Идентификатор кодека/Подсказка : XviD
Продолжительность : 1 ч. 35 м.
Битрейт : 883 Кбит/сек
Ширина : 704 пикселя
Высота : 304 пикселя
Соотношение сторон : 2,35:1
Частота кадров : 25,000 кадров/сек
Цветовое пространство : YUV
Субдискретизация насыщенности : 4:2:0
Битовая глубина : 8 бит
Тип развёртки : Прогрессивная
Метод сжатия : С потерями
Бит/(Пиксели*Кадры) : 0.165
Размер потока : 606 Мбайт (81%)
Библиотека кодирования : XviD 73

Аудио
Идентификатор : 1
Формат : AC-3
Формат/Информация : Audio Coding 3
Коммерческое название : Dolby Digital
Идентификатор кодека : 2000
Продолжительность : 1 ч. 35 м.
Вид битрейта : Постоянный
Битрейт : 192 Кбит/сек
Каналы : 2 канала
ChannelLayout : L R
Частота : 48,0 КГц
Частота кадров : 31,250 кадров/сек (1536 SPF)
Битовая глубина : 16 бит
Метод сжатия : С потерями
Размер потока : 132 Мбайт (18%)
Выравнивание : Разделение по промежуткам
Продолжительность промежутка : 40 мс. (1,00 видеокадр)
Время предзагрузки промежутка : 500 мс
pb.wtf



Скачать День счастья через торрент http://c.radikal.ru/c19/1911/45/8c6209ca91ae.png Скачать фильм День счастья через торрент бесплантно в хорошем качестве Описание:Как правило, жизнь человека — это череда дней, плавно перетекающих из одного в другой. Но иногда случается, что один — самый ... 5 10 1
Торрент: Зарегистрирован [2019-11-24 13:33] · скачан: 2 раз
Статус: √ проверено
Размер: 745 MB
Как cкачать? Как скачать День счастья через торрент | qTorrent

% Раздел Тема Автор DL S | L
Кино СССР [ 744 MB ] День счастья [1964 СССР DVDRip-AVC от AVP Studio] AVP Studio Скачать
14 | 1
Наши сериалы [ 2.15 GB ] Не в деньгах счастье / Серии: 1-4 из 4 [2017 Мело WEB-DLRip] bober100 Скачать
1 | 0
Наши сериалы [ 2.4 GB ] Не в деньгах счастье / Серии: 1-4 из 4 [2017 Мело SATRip] bober100 Скачать
1 | 0
Наши сериалы [ 2.23 GB ] Не в деньгах счастье / Серии: 1-4 из 4 [2017 Мело WEB-DLRip-AVC] bober100 Скачать
1 | 0
Наши фильмы, до 2010 [ 1.56 GB ] Не в деньгах счастье [2005 ] aspace Скачать
1 | 0

28-11-2019 20:33  

Отключить всю рекламу на сайте

    Дорогой пользователь! Огромная просьба, поблагодарите релизера, оцените раздачу и оставьте свои комментарий, если Вы скачали День счастья через торрент бесплатно! Внесите свою лепту в развитие PiratBit!
    Комментировать посты могут только пользователи прошедшие не сложную регистрацию
    Показать сообщения:    

    День счастья через торрент
    Скачать бесплатно День счастья
    День счастья скачать торрент
    День счастья смотреть онлайн
    Cкачать фильм День счастья бесплатно
    День счастья скачать торрент в хорошем качестве
    День счастья смотреть онлайн бесплатно в хорошем качестве


    Вы не можете начинать темы
    Вы не можете отвечать на сообщения
    Вы не можете редактировать свои сообщения
    Вы не можете удалять свои сообщения
    Вы не можете голосовать в опросах
    Вы не можете прикреплять файлы к сообщениям
    Вы можете скачивать файлы