Ссылка на приватное зеркало нашего сайта всего за 1$. Внимание количество ограничено!!!

2 сезон

iTunes

1 сезон

1

iTunes

iTunes

iTunes

1 сезон

RePack

30

ИГРА 18+

pack

ВАЖНО

!!Акция!!

Alien_RageХит недели

RePack

MK11
pack

Забери бонус

RePack

jed

!!Акция!!

Alien_Rage

RePack

fifa19

RePack

Assassins Creed: Odyssey

RePack

NEED FOR SPEED™ PAYBACK

4 сезон

9 сезон

Бесстыжие 9 сезон

Все сериалы

все сериалы на PB.wtf

RePack

FAR CRY 5
  

День счастья (Иосиф Хейфиц) [1964, СССР, драма, мелодрама, DVDRip-AVC от AVP Studio] pb.wtf

День счастья через торрент pb.wtf

Раздают: 6 [ 0 KB/s ]
Размер: 744 MB | Добавлен: 11 мес. назад | Торрент скачан:17 раз
Скачать  

24-11-2019 13:34 День счастья Скачать торрент  

День счастья
Страна: СССР
Производство: Ленфильм

Жанр: драма, мелодрама
Год выпуска: 1964
Продолжительность: 01:35:56

Перевод: Не требуется
Cубтитры: нет
Оригинальная аудиодорожка: русский

Режиссер: Иосиф Хейфиц

В ролях:
Тамара Сёмина, Алексей Баталов, Валентин Зубков, Николай Крючков, Лариса Голубкина, Иосиф Конопацкий, Людмила Глазова, С. Евстифеева, Владимир Липпарт, Анна Лисянская, Мария Призван-Соколова, Мария Самойлова, Павел Суханов, Иван Селянин, Владимир Тыкке, Георгий Штиль...
Об актёрах подробней

Описание:
Как правило, жизнь человека — это череда дней, плавно перетекающих из одного в другой. Но иногда случается, что один — самый обычный день кардинально изменяет направление этого размеренного течения. Врач «скорой помощи» ехал в автобусе и встретил прекрасную незнакомку. Под надуманным предлогом познакомился с ней, (они оказались полными тезками: она — Александра Николаевна, он — Александр Николаевич), потерял в толпе, и с тех пор всегда искал встречи с ней…

Источник: DVD9 R5
Качество видео: DVDRip-AVC
Формат видео: MKV

Видео: 704->828х352 (2,35:1), 25,000 fps, H264 ~ 891 kbps avg, 0.144 bit/pixel
Аудио: 48 kHz, Dolby Digital AC3 2.0, 192 kbps

Раздача от:
Общее
Полное имя : Den.Schastya.1964.DVDRip-AVC_[New-team]_by_AVP_Studio.mkv
Формат : Matroska
Версия формата : Version 2
Размер файла : 744 Мбайт
Продолжительность : 1 ч. 35 м.
Общий поток : 1085 Кбит/сек
Дата кодирования : UTC 2019-11-19 16:05:07
Программа кодирования : mkvmerge v6.1.0 ('Old Devil') built on Mar 4 2013 09:10:42
Библиотека кодирования : libebml v1.3.0 + libmatroska v1.4.0

Видео
Идентификатор : 1
Формат : AVC
Формат/Информация : Advanced Video Codec
Профиль формата : High@L4.1
Настройки формата : CABAC / 10 Ref Frames
Параметр CABAC формата : Да
Параметр RefFrames формата : 10 кадров
Идентификатор кодека : V_MPEG4/ISO/AVC
Продолжительность : 1 ч. 35 м.
Битрейт : 891 Кбит/сек
Ширина : 704 пикселя
Высота : 352 пикселя
Соотношение сторон : 2,35:1
Соотношение сторон в оригинале : 2,35:1
Режим частоты кадров : Постоянный
Частота кадров : 25,000 кадров/сек
Цветовое пространство : YUV
Субдискретизация насыщенности : 4:2:0
Битовая глубина : 8 бит
Тип развёртки : Прогрессивная
Бит/(Пиксели*Кадры) : 0.144
Размер потока : 598 Мбайт (80%)
Библиотека кодирования : x264 core 157 r2932 303c484
Настройки программы : cabac=1 / ref=10 / deblock=1:-2:-1 / analyse=0x3:0x113 / me=umh / subme=10 / psy=1 / psy_rd=1.00:0.00 / mixed_ref=1 / me_range=32 / chroma_me=1 / trellis=2 / 8x8dct=1 / cqm=0 / deadzone=21,11 / fast_pskip=1 / chroma_qp_offset=-2 / threads=6 / lookahead_threads=1 / sliced_threads=0 / nr=0 / decimate=0 / interlaced=0 / bluray_compat=0 / constrained_intra=0 / bframes=8 / b_pyramid=2 / b_adapt=2 / b_bias=0 / direct=3 / weightb=1 / open_gop=0 / weightp=2 / keyint=250 / keyint_min=25 / scenecut=40 / intra_refresh=0 / rc=2pass / mbtree=0 / bitrate=891 / ratetol=1.0 / qcomp=0.60 / qpmin=0 / qpmax=69 / qpstep=4 / cplxblur=20.0 / qblur=0.5 / ip_ratio=1.40 / pb_ratio=1.30 / aq=1:1.00
Default : Да
Forced : Нет

Аудио
Идентификатор : 2
Формат : AC-3
Формат/Информация : Audio Coding 3
Коммерческое название : Dolby Digital
Идентификатор кодека : A_AC3
Продолжительность : 1 ч. 35 м.
Вид битрейта : Постоянный
Битрейт : 192 Кбит/сек
Каналы : 2 канала
ChannelLayout : L R
Частота : 48,0 КГц
Частота кадров : 31,250 кадров/сек (1536 SPF)
Битовая глубина : 16 бит
Метод сжатия : С потерями
Размер потока : 132 Мбайт (18%)
Default : Да
Forced : Нет
pb.wtf



Скачать День счастья через торрент http://c.radikal.ru/c19/1911/45/8c6209ca91ae.png Скачать фильм День счастья через торрент бесплантно в хорошем качестве Описание:Как правило, жизнь человека — это череда дней, плавно перетекающих из одного в другой. Но иногда случается, что один — самый ... 10 10 1
Торрент: Зарегистрирован [2019-11-24 13:34] · скачан: 17 раз
Статус: √ проверено
Размер: 744 MB
Как cкачать? Как скачать День счастья через торрент | qTorrent

% Раздел Тема Автор DL S | L
Кино СССР [ 745 MB ] День счастья [1964 СССР DVDRip от AVP Studio] AVP Studio Скачать
3 | 0
Наши сериалы [ 2.15 GB ] Не в деньгах счастье / Серии: 1-4 из 4 [2017 Мело WEB-DLRip] bober100 Скачать
1 | 0
Наши сериалы [ 2.4 GB ] Не в деньгах счастье / Серии: 1-4 из 4 [2017 Мело SATRip] bober100 Скачать
1 | 0
Наши сериалы [ 2.23 GB ] Не в деньгах счастье / Серии: 1-4 из 4 [2017 Мело WEB-DLRip-AVC] bober100 Скачать
1 | 0
Наши фильмы, до 2010 [ 1.56 GB ] Не в деньгах счастье [2005 ] aspace Скачать
1 | 0

28-11-2019 20:33  

Отключить всю рекламу на сайте

    Дорогой пользователь! Огромная просьба, поблагодарите релизера, оцените раздачу и оставьте свои комментарий, если Вы скачали День счастья через торрент бесплатно! Внесите свою лепту в развитие PiratBit!
    Комментировать посты могут только пользователи прошедшие не сложную регистрацию
    Показать сообщения:    

    День счастья через торрент
    Скачать бесплатно День счастья
    День счастья скачать торрент
    День счастья смотреть онлайн
    Cкачать фильм День счастья бесплатно
    День счастья скачать торрент в хорошем качестве
    День счастья смотреть онлайн бесплатно в хорошем качестве


    Вы не можете начинать темы
    Вы не можете отвечать на сообщения
    Вы не можете редактировать свои сообщения
    Вы не можете удалять свои сообщения
    Вы не можете голосовать в опросах
    Вы не можете прикреплять файлы к сообщениям
    Вы можете скачивать файлы