Ссылка на приватное зеркало всего за 1$. Внимание количество ограничено!!!

OK

1+1

iTunes

мы

OK

1

WEB-DLRip

Джокер

Пифагор

Ведьмак / The Witcher сериал

Лицензия

ПШазам

ОК

Оно 2

iTunes

30
pack

Вам бонус

ВАЖНО

!!Акция!!

Alien_RageХит недели

RePack

Resident Evil 21

ИГРА 18+

pack

RePack

jed

!!Акция!!

Alien_Rage

RePack

fifa19

RePack

Assassins Creed: Odyssey

RePack

NEED FOR SPEED™ PAYBACK

4 сезон

9 сезон

Бесстыжие 9 сезон

Все сериалы

все сериалы на PB.wtf

RePack

FAR CRY 5
  

Беглый огонь / Rapid Fire (Дуайт Х. Литтл) [1992 г., боевик, триллер, драма, криминал, BDRip 720p / 60 FPS, Дубляж] от R.G. HD-Films pb.wtf

Беглый огонь через торрент pb.wtf

Размер: 4.23 GB | Добавлен: 1 мес. 26 д. назад | Торрент скачан:19 раз
Скачать  

24-11-2019 16:56 Беглый огонь Скачать торрент  

Беглый огонь / Rapid Fire
Год выпуска: 1992
Страна: США
Жанр: боевик, триллер, драма, криминал
Продолжительность: 01:35:14
Перевод: Дубляж
Субтитры: Русские

Режиссер: Дуайт Х. Литтл

Бюджет: $10 000 000
Премьера в мире: 21 августа 1992

rating

В ролях: Брэндон Ли, Пауэрс Бут, Ник Манкузо, Рэймонд Дж. Бэрри, Кейт Ходж, Ци Ма, Тони Лонго, Майкл Пол Чан, Дастин Нгуен, Бриджитта Штенберг

Описание: Студент-байкер Джейк Ло становится свидетелем жестокого убийства. Не думая о том, кто стоит за спиной убийц, он соглашается свидетельствовать в суде, и тут же чьи-то люди под видом агентов ФБР пытаются убрать его. Едва ускользнув от лже-агентов, Джейк оказывается в центре ураганной схватки за его голову. ФБР, наркобароны, друзья, враги — все смешалось, и неизвестно, кто несет смерть, а кто — помощь. Здесь могут спасти только инстинкты. И инстинкт подсказывает, что единственный, кому можно верить — офицер полиции Райан. Но единственное, что может предложить Райан — сыграть подсадную утку в его охоте...

Качество: BDRip 720p / 60 FPS
Формат: MKV
Видео кодек: H.264
Аудио кодек: AC3
Видео: x264, 1280 x 696 (1,85:1), 6177 kbps, 60,000 fps, ( 0.116 bpp)
Аудио#1: Русский, AC-3, 48.0 KHz, 2 ch, 192 Kbps ( DUB, Киностудия им.Горького )


скриншот   скриншот   скриншот   скриншот   скриншот  Автор рипа: slaventi-69
x264 [info]: frame I:1911 Avg QP:17.74 size: 99084 PSNR Mean Y:46.59 U:50.32 V:52.91 Avg:47.65 Global:47.39
x264 [info]: frame P:82588 Avg QP:20.65 size: 25289 PSNR Mean Y:43.90 U:48.42 V:51.05 Avg:45.07 Global:44.76
x264 [info]: frame B:257924 Avg QP:23.22 size: 8253 PSNR Mean Y:42.88 U:48.22 V:50.97 Avg:44.14 Global:43.67
x264 [info]: consecutive B-frames: 2.2% 3.5% 10.8% 16.5% 53.8% 13.1%


Общее
Уникальный идентификатор : 195833265685480655408526029770244030774 (0x93541D73DB47B421B7E8AD9E476D0136)
Полное имя : F:\Rapid.Fire.(1992).BDRip.720p.(60 Fps).mkv
Формат : Matroska
Версия формата : Version 4
Размер файла : 4,23 Гбайт
Продолжительность : 1 ч. 35 м.
Общий поток : 6373 Кбит/сек
Название фильма : Беглый огонь / Rapid Fire (1992) BDRip 720p (60 Fps)
Дата кодирования : UTC 2019-11-13 16:55:24
Программа кодирования : mkvmerge v12.0.0 ('Trust / Lust') 64bit
Библиотека кодирования : libebml v1.3.4 + libmatroska v1.4.5

Видео
Идентификатор : 1
Формат : AVC
Формат/Информация : Advanced Video Codec
Профиль формата : High@L4.1
Настройки формата : CABAC / 8 Ref Frames
Параметр CABAC формата : Да
Параметр RefFrames формата : 8 кадров
Идентификатор кодека : V_MPEG4/ISO/AVC
Продолжительность : 1 ч. 35 м.
Битрейт : 6177 Кбит/сек
Ширина : 1280 пикселей
Высота : 696 пикселей
Соотношение сторон : 1,85:1
Режим частоты кадров : Постоянный
Частота кадров : 60,000 кадров/сек
Цветовое пространство : YUV
Субдискретизация насыщенности : 4:2:0
Битовая глубина : 8 бит
Тип развёртки : Прогрессивная
Бит/(Пиксели*Кадры) : 0.116
Размер потока : 4,10 Гбайт (97%)
Заголовок : slaventi-69 ( R.G. HD-Films | 60 fps )
Библиотека кодирования : x264 core 130 r2273 b3065e6
Настройки программы : cabac=1 / ref=8 / deblock=1:-3:-3 / analyse=0x3:0x113 / me=umh / subme=9 / psy=1 / psy_rd=1.00:0.00 / mixed_ref=1 / me_range=24 / chroma_me=1 / trellis=2 / 8x8dct=1 / cqm=0 / deadzone=21,11 / fast_pskip=1 / chroma_qp_offset=-2 / threads=10 / lookahead_threads=2 / sliced_threads=0 / nr=0 / decimate=1 / interlaced=0 / bluray_compat=0 / constrained_intra=0 / bframes=5 / b_pyramid=2 / b_adapt=2 / b_bias=0 / direct=2 / weightb=1 / open_gop=0 / weightp=2 / keyint=250 / keyint_min=25 / scenecut=40 / intra_refresh=0 / rc_lookahead=40 / rc=crf / mbtree=1 / crf=18.0 / qcomp=0.60 / qpmin=0 / qpmax=69 / qpstep=4 / ip_ratio=1.40 / aq=1:1.00
Язык : English
Default : Да
Forced : Нет

Аудио
Идентификатор : 2
Формат : AC-3
Формат/Информация : Audio Coding 3
Коммерческое название : Dolby Digital
Идентификатор кодека : A_AC3
Продолжительность : 1 ч. 35 м.
Вид битрейта : Постоянный
Битрейт : 192 Кбит/сек
Каналы : 2 канала
Channel layout : L R
Частота : 48,0 КГц
Частота кадров : 31,250 кадров/сек (1536 SPF)
Битовая глубина : 16 бит
Метод сжатия : С потерями
Размер потока : 131 Мбайт (3%)
Заголовок : DUB, киностудия им.Горького
Язык : Russian
ServiceKind/String : Complete Main
Default : Да
Forced : Нет

Текст
Идентификатор : 3
Формат : UTF-8
Идентификатор кодека : S_TEXT/UTF8
Идентификатор кодека/Информация : UTF-8 Plain Text
Продолжительность : 1 ч. 30 м.
Битрейт : 64 бит/сек
ElementCount : 805
Размер потока : 42,4 Кбайт (0%)
Заголовок : Full
Язык : Russian
Default : Нет
Forced : Нет

Просьба к переливающим на другие сайты, в оформлении указывайте пожалуйста авторство группы R.G. HD-Films pb.wtf



Скачать Беглый огонь через торрент https://a.radikal.ru/a20/1907/a7/32c8ebf75022.jpg Скачать фильм Беглый огонь через торрент бесплантно в хорошем качестве Описание: Студент-байкер Джейк Ло становится свидетелем жестокого убийства. Не думая о том, кто стоит за спиной убийц, он соглашается ... 10 10 3
Торрент: Зарегистрирован [2019-11-24 16:56] · скачан: 19 раз
Статус: √ проверено
Размер: 4.23 GB
Как cкачать? Как скачать Беглый огонь через торрент | qTorrent

28-11-2019 20:33  

Отключить всю рекламу на сайте

26-11-2019 10:25 Беглый огонь Скачать торрент  

Спасибо!!! pb.wtf



    Дорогой пользователь! Огромная просьба, поблагодарите релизера, оцените раздачу и оставьте свои комментарий, если Вы скачали Беглый огонь через торрент бесплатно! Внесите свою лепту в развитие PiratBit!
    Комментировать посты могут только пользователи прошедшие не сложную регистрацию
    Показать сообщения:    

    Беглый огонь через торрент
    Скачать бесплатно Беглый огонь
    Беглый огонь скачать торрент
    Беглый огонь смотреть онлайн
    Cкачать фильм Беглый огонь бесплатно
    Беглый огонь скачать торрент в хорошем качестве
    Беглый огонь смотреть онлайн бесплатно в хорошем качестве


    Вы не можете начинать темы
    Вы не можете отвечать на сообщения
    Вы не можете редактировать свои сообщения
    Вы не можете удалять свои сообщения
    Вы не можете голосовать в опросах
    Вы не можете прикреплять файлы к сообщениям
    Вы можете скачивать файлы