2 сезон

iTunes

MVO

1

2 сезон

iTunes

iTunes

1 сезон

RePack

30

Новинка

ВАЖНО

ИГРА 18+

pack

RePack

MK11
pack

Легкие деньги

RePack

jed

RePack

fifa19

RePack

RDR2

RePack

NEED FOR SPEED™ PAYBACK

4 сезон

9 сезон

Бесстыжие 9 сезон

Все сериалы

все сериалы на PB.wtf

RePack

FAR CRY 5

Anonymous, добрый вечер, мы не успеваем собрать деньги на оплату серверов за декабрь и январь, помогите нам пожалуйста в это трудное время. В качестве благодарности мы отключим Вам всю рекламу на сайте (укажите свой ник в строку Ваше имя)!

×
  
Magnet ссылка

Йеллоустоун / Yellowstone / Сезон: 2 / Серии: 1-10 из 10 (Тэйлор Шеридан) [2019, драма, вестерн, WEBRip 1080p] [MVO] (HDRezka Studio) pb.wtf

Йеллоустоун через торрент pb.wtf

Размер: 29.77 GB | Добавлен: 6 мес. назад | Торрент скачан:9 раз
Скачать  

24-11-2019 18:45 Йеллоустоун Скачать торрент  

Йеллоустоун / Yellowstone
Год выпуска: 2019
Страна: США
Жанр: драма, вестерн
Продолжительность: ~00:55:00
Перевод: Профессиональный (многоголосый закадровый) | HDRezka Studio
Режиссёр: Тейлор Шеридан
В ролях: Кевин Костнер, Люк Граймс, Келли Райлли, Уэс Бентли, Коул Хаузер, Келси Эсбиль, Брекен Мэрилл, Джефферсон Уайт, Дэйв Эннэйбл, Дэнни Хьюстон, Джил Бирмингем, Венди Мониз, Майкл Нури, Аттикус Тодд, Джилл Хеннесси, Фредрик Лене, Тимоти Кархарт, Джош Лукас, Гретхен Мол и др.
Описание: Йеллоустон — первый в мире национальный парк, одно из самих посещаемых мест в США. Но здесь, на границе цивилизации, происходит много такого, чего не видят туристы, что не освещается средствами массовой информации. Семья Даттон, главой которой является Джон Даттон, владеет огромным ранчо, сопредельным с территорией парка. На их землю претендует и сам парк, и индейская резервация, и жадные застройщики.

rating

Качество: WEBRip 1080p (исх. WEBRip AMZN 1080p)
Контейнер: MKV
Видео: 1920x1080, 23.976 fps, MPEG-4 AVC, ~7760 kbps
Аудио: 48 kHz, AC3, 2/0 (L,R) ch, 192 kbps
Субтитры: Русские
General
Unique ID : 137292504257424889827288249100517403926 (0x674993130463E15C87573E6504D66D16)
Complete name : E:\Yellowstone.2019.S02.1080p\Yellowstone.S02E01.WEBRip.1080p.rus.2.0.HDREZKA.STUDIO.mkv
Format : Matroska
Format version : Version 4 / Version 2
File size : 2.68 GiB
Duration : 47 min 16 s
Overall bit rate mode : Variable
Overall bit rate : 8 113 kb/s
Encoded date : UTC 2019-07-18 21:11:21
Writing application : mkvmerge v28.2.0 ('The Awakening') 64-bit
Writing library : libebml v1.3.6 + libmatroska v1.4.9

Video
ID : 1
Format : AVC
Format/Info : Advanced Video Codec
Format profile : High@L4.1
Format settings : CABAC / 1 Ref Frames
Format settings, CABAC : Yes
Format settings, RefFrames : 1 frame
Codec ID : V_MPEG4/ISO/AVC
Duration : 47 min 16 s
Bit rate mode : Variable
Bit rate : 7 759 kb/s
Maximum bit rate : 2 000 kb/s
Width : 1 920 pixels
Height : 1 080 pixels
Display aspect ratio : 16:9
Frame rate mode : Constant
Frame rate : 23.976 (24000/1001) FPS
Color space : YUV
Chroma subsampling : 4:2:0
Bit depth : 8 bits
Scan type : Progressive
Bits/(Pixel*Frame) : 0.156
Stream size : 2.56 GiB (96%)
Default : Yes
Forced : No

Audio
ID : 2
Format : AC-3
Format/Info : Audio Coding 3
Format settings, Endianness : Big
Codec ID : A_AC3
Duration : 47 min 16 s
Bit rate mode : Constant
Bit rate : 192 kb/s
Channel(s) : 2 channels
Channel positions : Front: L R
Sampling rate : 48.0 kHz
Frame rate : 31.250 FPS (1536 SPF)
Bit depth : 16 bits
Compression mode : Lossy
Stream size : 64.9 MiB (2%)
Language : Russian
Service kind : Complete Main
Default : Yes
Forced : No

скриншот  скриншот  скриншот  
pb.wtf



Скачать Йеллоустоун через торрент http://img14.lostpic.net/2019/05/06/a70acae2d9a1ae6430bd14d1d7531535.png Скачать фильм Йеллоустоун через торрент бесплантно в хорошем качестве Описание: Йеллоустон — первый в мире национальный парк, одно из самих посещаемых мест в США. Но здесь, на границе цивилизации, происходит ... 10 10 1
Торрент: Зарегистрирован [2020-06-23 07:03] · скачан: 9 раз
Статус: √ проверено
Размер: 29.77 GB
Как cкачать? Как скачать Йеллоустоун через торрент | UTorrent

% Раздел Тема Автор DL S | L
Зарубежные сериалы [ 26.14 GB ] Йеллоустоун / Yellowstone / Сезон: 2 / Серии: 1-10 из 10 [2019 BDRip 1080p] MVO [LostFilm] bober100 Скачать
1 | 0
Зарубежные сериалы [ 6.85 GB ] Йеллоустоун / Yellowstone / Сезон: 2 / Серии: 1-10 из 10 [2019 WEB-DLRip] MVO [LostFilm] bober100 Скачать
1 | 0
Зарубежные сериалы [ 30.51 GB ] Йеллоустоун / Yellowstone / Сезон: 2 / Серии: 1-10 из 10 [2019 WEBRip 1080p] [MVO] killermax2013 Скачать
1 | 0
Зарубежные сериалы [ 30.3 GB ] Йеллоустоун / Yellowstone / Сезон: 2 / Серии: 1-10 из 10 [2019 WEB-DL 1080p] [MVO] killermax2013 Скачать
1 | 0
Зарубежные сериалы [ 7.19 GB ] Йеллоустоун / Yellowstone / Сезон: 2 / Серии: 1-10 из 10 [2019 WEB-DLRip] [MVO] killermax2013 Скачать
3 | 0
Зарубежные сериалы [ 15.03 GB ] Йеллоустоун / Yellowstone / Сезон: 2 / Серии: 1-10 из 10 [2019 WEB 720p] MVO [LostFilm] bober100 Скачать
2 | 0

28-11-2019 20:33  

Отключить всю рекламу на сайте

    Дорогой пользователь! Огромная просьба, поблагодарите релизера, оцените раздачу и оставьте свои комментарий, если Вы скачали Йеллоустоун через торрент бесплатно! Внесите свою лепту в развитие PiratBit!
    Комментировать посты могут только пользователи прошедшие не сложную регистрацию
    Показать сообщения:    

    Йеллоустоун через торрент
    Скачать бесплатно Йеллоустоун
    Йеллоустоун скачать торрент
    Йеллоустоун смотреть онлайн
    Cкачать фильм Йеллоустоун бесплатно
    Йеллоустоун скачать торрент в хорошем качестве
    Йеллоустоун смотреть онлайн бесплатно в хорошем качестве


    Вы не можете начинать темы
    Вы не можете отвечать на сообщения
    Вы не можете редактировать свои сообщения
    Вы не можете удалять свои сообщения
    Вы не можете голосовать в опросах
    Вы не можете прикреплять файлы к сообщениям
    Вы можете скачивать файлы