Ссылка на приватное зеркало нашего сайта всего за 1$. Внимание количество ограничено!!!

2 сезон

iTunes

1 сезон

1

2 сезон

2 сезон

iTunes

1 сезон

RePack

30

Ultimate

ВАЖНО

ИГРА 18+

pack

RePack

MK11
pack

Забери бонус

RePack

jed

!!Акция!!

Alien_Rage

RePack

fifa19

RePack

Assassins Creed: Odyssey

RePack

NEED FOR SPEED™ PAYBACK

4 сезон

9 сезон

Бесстыжие 9 сезон

Все сериалы

все сериалы на PB.wtf

RePack

FAR CRY 5
  

Однажды в… Голливуде / Once Upon a Time ... in Hollywood (Квентин Тарантино) [2019, драма, комедия, WEB-DL 720p] DUB (rus, ukr) [iTunes] pb.wtf

Однажды в… Голливуде через торрент pb.wtf

Раздают: 3 [ 0 KB/s ]
Размер: 6.28 GB | Добавлен: 1 год назад | Торрент скачан:652 раза
Скачать  

24-11-2019 19:48 Однажды в… Голливуде Скачать торрент  

Однажды в… Голливуде / Once Upon a Time ... in Hollywood
Год выпуска: 2019
Страна: Великобритания, США, Китай
Студия: Bona Film Group, Heyday Films, Sony Pictures Entertainment
Жанр: драма, комедия
Продолжительность: 02:41:27
Перевод: Дублированный | iTunes
Субтитры: Русские (Forced, full), украинские (Full), английские

Режиссер: Квентин Тарантино

rating

В ролях: Брэд Питт, Леонардо ДиКаприо, Марго Робби, Майя Хоук, Остин Роберт Батлер, Сидни Свини, Маргарет Куэлли, Дакота Фэннинг, Тимоти Олифант, Аль Пачино, Эмиль Хирш, Джулия Баттерз, Брюс Дерн

Описание: Фильм повествует о череде событий, произошедших в Голливуде в 1969 году, на закате его «золотого века». По сюжету, известный ТВ актер Рик Далтон и его дублер Клифф Бут пытаются найти свое место в стремительно меняющемся мире киноиндустрии.

Качество: WEB-DL 720p
Формат: MKV

Видео: MPEG-4 AVC, 1280x720, 4382 Кbit/s, 23.976 fps
Аудио #01: 48 kHz, AC3, 5.1, 384 Kbps | iTunes | RUS |
Аудио #02: 48 kHz, AC3, 2.0, 160 Kbps | iTunes | UKR |
Аудио #03: 48 kHz, E-AC3, 5.1, 640 Kbps | Оригинал | ENG |
скриншот  скриншот  скриншот  скриншот  скриншот  

General
Unique ID : 156059656442834894563969937761902138711 (0x7567FF1D997F3854D0F027FB0E161557)
Complete name : F:Video111Once.Upon.a.Time.in.Hollywood.2019.WEB-DL.720p.seleZen.mkv
Format : Matroska
Format version : Version 4
File size : 6.28 GiB
Duration : 2 h 41 min
Overall bit rate : 5 568 kb/s
Movie name : Once Upon a Time in Hollywood 2019 from селезень
Encoded date : UTC 2019-11-24 19:41:47
Writing application : mkvmerge v40.0.0 ('Old Town Road + Pony') 64-bit
Writing library : libebml v1.3.9 + libmatroska v1.5.2

Video
ID : 1
Format : AVC
Format/Info : Advanced Video Codec
Format profile : High@L3.1
Format settings : CABAC / 4 Ref Frames
Format settings, CABAC : Yes
Format settings, Reference : 4 frames
Codec ID : V_MPEG4/ISO/AVC
Duration : 2 h 41 min
Bit rate mode : Constant
Bit rate : 4 382 kb/s
Nominal bit rate : 6 000 kb/s
Width : 1 280 pixels
Height : 720 pixels
Display aspect ratio : 16:9
Frame rate mode : Constant
Frame rate : 23.976 (24000/1001) FPS
Color space : YUV
Chroma subsampling : 4:2:0
Bit depth : 8 bits
Scan type : Progressive
Bits/(Pixel*Frame) : 0.198
Stream size : 4.94 GiB (79%)
Language : English
Default : Yes
Forced : No
Color range : Limited
Color primaries : BT.709
Transfer characteristics : BT.709
Matrix coefficients : BT.709

Audio #1
ID : 2
Format : AC-3
Format/Info : Audio Coding 3
Commercial name : Dolby Digital
Codec ID : A_AC3
Duration : 2 h 41 min
Bit rate mode : Constant
Bit rate : 384 kb/s
Channel(s) : 6 channels
Channel layout : L R C LFE Ls Rs
Sampling rate : 48.0 kHz
Frame rate : 31.250 FPS (1536 SPF)
Bit depth : 16 bits
Compression mode : Lossy
Stream size : 443 MiB (7%)
Title : iTunes
Language : Russian
Service kind : Complete Main
Default : Yes
Forced : Yes

Audio #2
ID : 3
Format : AC-3
Format/Info : Audio Coding 3
Commercial name : Dolby Digital
Codec ID : A_AC3
Duration : 2 h 41 min
Bit rate mode : Constant
Bit rate : 160 kb/s
Channel(s) : 2 channels
Channel layout : L R
Sampling rate : 48.0 kHz
Frame rate : 31.250 FPS (1536 SPF)
Bit depth : 16 bits
Compression mode : Lossy
Stream size : 185 MiB (3%)
Title : iTunes
Language : Ukrainian
Service kind : Complete Main
Default : No
Forced : No

Audio #3
ID : 4
Format : E-AC-3
Format/Info : Enhanced AC-3
Commercial name : Dolby Digital Plus
Codec ID : A_EAC3
Duration : 2 h 41 min
Bit rate mode : Constant
Bit rate : 640 kb/s
Channel(s) : 6 channels
Channel layout : L R C LFE Ls Rs
Sampling rate : 48.0 kHz
Frame rate : 31.250 FPS (1536 SPF)
Compression mode : Lossy
Delay relative to video : 6 ms
Stream size : 739 MiB (11%)
Title : Original
Language : English
Service kind : Complete Main
Default : No
Forced : No

Text #1
ID : 5
Format : UTF-8
Codec ID : S_TEXT/UTF8
Codec ID/Info : UTF-8 Plain Text
Duration : 2 h 36 min
Bit rate : 0 b/s
Count of elements : 16
Stream size : 646 Bytes (0%)
Title : Forced
Language : Russian
Default : Yes
Forced : Yes

Text #2
ID : 6
Format : UTF-8
Codec ID : S_TEXT/UTF8
Codec ID/Info : UTF-8 Plain Text
Duration : 2 h 40 min
Bit rate : 75 b/s
Count of elements : 1766
Stream size : 88.7 KiB (0%)
Title : Full
Language : Russian
Default : No
Forced : No

Text #3
ID : 7
Format : UTF-8
Codec ID : S_TEXT/UTF8
Codec ID/Info : UTF-8 Plain Text
Duration : 2 h 40 min
Bit rate : 82 b/s
Count of elements : 1817
Stream size : 97.1 KiB (0%)
Title : Full
Language : Ukrainian
Default : No
Forced : No

Text #4
ID : 8
Format : UTF-8
Codec ID : S_TEXT/UTF8
Codec ID/Info : UTF-8 Plain Text
Duration : 2 h 39 min
Bit rate : 56 b/s
Count of elements : 2160
Stream size : 65.6 KiB (0%)
Title : Full
Language : English
Default : No
Forced : No

Text #5
ID : 9
Format : UTF-8
Codec ID : S_TEXT/UTF8
Codec ID/Info : UTF-8 Plain Text
Duration : 2 h 40 min
Bit rate : 61 b/s
Count of elements : 2543
Stream size : 72.8 KiB (0%)
Title : SDH
Language : English
Default : No
Forced : No

Menu
00:00:00.000 : en:1
00:04:49.415 : en:2
00:13:45.200 : en:3
00:18:29.150 : en:4
00:22:00.319 : en:5
00:25:59.349 : en:6
00:28:41.094 : en:7
00:33:45.106 : en:8
00:40:19.333 : en:9
00:49:59.454 : en:10
00:51:48.688 : en:11
00:59:52.254 : en:12
01:02:32.872 : en:13
01:04:28.612 : en:14
01:09:16.733 : en:15
01:17:40.778 : en:16
01:20:25.776 : en:17
01:26:28.430 : en:18
01:32:54.441 : en:19
01:39:58.490 : en:20
01:47:55.216 : en:21
01:53:00.229 : en:22
01:58:09.538 : en:23
02:06:23.990 : en:24
02:11:22.955 : en:25
02:15:50.097 : en:26
02:21:30.187 : en:27
02:29:50.729 : en:28
02:36:28.251 : en:29
02:38:51.227 : en:30

pb.wtf



Скачать Однажды в… Голливуде через торрент https://img16.lostpic.net/2019/11/24/24ca4e214b94527381320420308949d6.jpg Скачать фильм Однажды в… Голливуде через торрент бесплантно в хорошем качестве Описание: Фильм повествует о череде событий, произошедших в Голливуде в 1969 году, на закате его «золотого века». По сюжету, известный ТВ ... 8.8 10 11
Торрент: Зарегистрирован [2019-11-24 19:48] · скачан: 652 раз
Статус: √ проверено
Размер: 6.28 GB
Как cкачать? Как скачать Однажды в… Голливуде через торрент | qTorrent

% Раздел Тема Автор DL S | L
Фильмы 2019-2020 [DVDrip, WEB-DLRip, HDrip] (DUB, MVO) [ 3.43 GB ] Однажды в… Голливуде / Once Upon a Time ... in Hollywood [2019 BDRip-AVC] DUB [] AVO [Дольский] - ExKinoRay Enigma2010 Скачать
24 | 0
Фильмы [HD 720p, 1080p] (Хороший звук DUB, MVO) [ 7.48 GB ] Однажды в… Голливуде / Once Upon a Time ... in Hollywood [2019 BDRip 720p AVO] от ExKinoRay morfyi Скачать
3 | 0
Фильмы 2019-2020 [DVDrip, WEB-DLRip, HDrip] (DUB, MVO) [ 1.46 GB ] Однажды в… Голливуде / Once Upon a Time ... in Hollywood [2019 BDRip] - [] Twi7ter Скачать
24 | 0
Официальные cаундтреки к зарубежным фильмам [ 418 MB ] OST - Однажды в… Голливуде / Once Upon a Time...in Hollywood 2019 / FLAC / lossless / Soundtrack bober100 Скачать
2 | 0
Официальные cаундтреки к зарубежным фильмам [ 171 MB ] OST - Однажды в… Голливуде / Once Upon a Time...in Hollywood 2019 / MP3 / 320 kbps / Soundtrack bober100 Скачать
1 | 0
Фильмы 2019-2020 [DVDrip, WEB-DLRip, HDrip] (DUB, MVO) [ 2.18 GB ] Однажды в… Голливуде / Once Upon a Time ... in Hollywood [2019 BDRip] - [] Twi7ter Скачать
148 | 0
Фильмы с авторской озвучкой [ 2.18 GB ] Однажды в… Голливуде / Once Upon a Time ... in Hollywood [2019 HDRip] 2x[AVO] killermax2013 Скачать
1 | 0

28-11-2019 20:33  

Отключить всю рекламу на сайте

    Дорогой пользователь! Огромная просьба, поблагодарите релизера, оцените раздачу и оставьте свои комментарий, если Вы скачали Однажды в… Голливуде через торрент бесплатно! Внесите свою лепту в развитие PiratBit!
    Комментировать посты могут только пользователи прошедшие не сложную регистрацию
    Показать сообщения:    

    Однажды в… Голливуде через торрент
    Скачать бесплатно Однажды в… Голливуде
    Однажды в… Голливуде скачать торрент
    Однажды в… Голливуде смотреть онлайн
    Cкачать фильм Однажды в… Голливуде бесплатно
    Однажды в… Голливуде скачать торрент в хорошем качестве
    Однажды в… Голливуде смотреть онлайн бесплатно в хорошем качестве


    Вы не можете начинать темы
    Вы не можете отвечать на сообщения
    Вы не можете редактировать свои сообщения
    Вы не можете удалять свои сообщения
    Вы не можете голосовать в опросах
    Вы не можете прикреплять файлы к сообщениям
    Вы можете скачивать файлы