новый адрес
Ссылка на приватное зеркало всего за 1$. Внимание количество ограничено!!!

iTunes

1+1

iTunes

мы

WEB-DL

1

iTunes

Чернобыль

iTunes

Ральф против интернета

Лицензия

ПШазам

Лицензия

Оно 2

Лицензия

30
pack

Вам бонус

ВАЖНО

!!Акция!!

Alien_RageХит недели

RePack

Resident Evil 21

ИГРА 18+

pack

RePack

jed

!!Акция!!

Alien_Rage

RePack

fifa19

RePack

Assassins Creed: Odyssey

RePack

NEED FOR SPEED™ PAYBACK

3 сезон

9 сезон

Бесстыжие 9 сезон

Все сериалы

все сериалы на PB.wtf

RePack

FAR CRY 5
Ребята, катастрофически не хватает 1900р. для оплаты серверов за Октябрь (всвязи с блокировками трафик упал в 3 раза), 1-2р., выручайте.
  

Однажды в… Голливуде / Once Upon a Time ... in Hollywood (Квентин Тарантино) [2019, драма, комедия, WEB-DLRip-AVC] DUB [iTunes] , AVO [Дольский] - ExKinoRay pb.wtf

Однажды в… Голливуде через торрент pb.wtf

Раздают: 547 [ 4 MB/s ] Качают: 10 [ 2 MB/s ]
Размер: 3.2 GB | Добавлен: 12 д. назад | Торрент скачан:956 раз
Скачать  

24-11-2019 21:46 Однажды в… Голливуде Скачать торрент  

Название: Однажды в… Голливуде
Оригинальное название: Once Upon a Time ... in Hollywood
Год выпуска: 2019
Жанр: Драма, комедия
Режиссер: Квентин Тарантино
В ролях: Брэд Питт, Леонардо ДиКаприо, Марго Робби, Майя Хоук, Остин Роберт Батлер, Сидни Свини, Маргарет Куэлли, Дакота Фэннинг, Тимоти Олифант, Аль Пачино, Эмиль Хирш, Джулия Баттерз, Брюс Дерн

Описание: Фильм повествует о череде событий, произошедших в Голливуде в 1969 году, на закате его «золотого века». По сюжету, известный ТВ актер Рик Далтон и его дублер Клифф Бут пытаются найти свое место в стремительно меняющемся мире киноиндустрии.

rating

Страна: Великобритания, США, Китай
Студия: Bona Film Group, Heyday Films, Sony Pictures Entertainment
Продолжительность: 02:41:27
Перевод: Дублированный | iTunes
Авторский (одноголосый, закадровый) Андрей Дольский

Качество: WEB-DLRip-AVC
Видео: MPEG-4 AVC, 1024x426, 1650 Кbit/s, 23.976 fps
Аудио #01: 48 kHz, AC3, 5.1, 384 Kbps | iTunes | RUS |
Аудио #01: 48 kHz, AC3, 2.0, 256 Kbps | AVO | RUS |
Аудио #02: 48 kHz, AC3, 2.0, 160 Kbps | iTunes | UKR |
Аудио #03: 48 kHz, AC3, 5.1, 384 Kbps | Оригинал | ENG |
Субтитры: Русские (Forced, full), украинские (Full), английские
General
Unique ID : 241038079127053273595863437784274772741 (0xB5563ED4AFB914C0A89037E6B4652305)
Complete name : F:\Once Upon a Time.2019.2xRus.AVC.ExKinoRay.mkv
Format : Matroska
Format version : Version 2
File size : 3.20 GiB
Duration : 2 h 41 min
Overall bit rate : 2 834 kb/s
Movie name : Once Upon a Time in Hollywood (2019) from ExKinoRay
Encoded date : UTC 2019-11-24 21:00:59
Writing application : mkvmerge v5.6.0 ('Kenya Kane') built on May 27 2012 16:44:04
Writing library : libebml v1.2.3 + libmatroska v1.3.0
Cover : Yes
Attachments : cover.jpg

Video
ID : 1
Format : AVC
Format/Info : Advanced Video Codec
Format profile : High@L4.1
Format settings, CABAC : Yes
Format settings, ReFrames : 11 frames
Codec ID : V_MPEG4/ISO/AVC
Duration : 2 h 41 min
Bit rate : 1 650 kb/s
Width : 1 024 pixels
Height : 426 pixels
Display aspect ratio : 2.40:1
Frame rate mode : Constant
Frame rate : 23.976 (23976/1000) FPS
Color space : YUV
Chroma subsampling : 4:2:0
Bit depth : 8 bits
Scan type : Progressive
Bits/(Pixel*Frame) : 0.158
Stream size : 1.80 GiB (56%)
Title : Enigma
Writing library : x264 core 152 r2851 ba24899
Encoding settings : cabac=1 / ref=11 / deblock=1:-2:-2 / analyse=0x3:0x113 / me=umh / subme=10 / psy=1 / psy_rd=1.03:0.08 / mixed_ref=1 / me_range=32 / chroma_me=1 / trellis=2 / 8x8dct=1 / cqm=0 / deadzone=21,11 / fast_pskip=0 / chroma_qp_offset=-3 / threads=12 / lookahead_threads=3 / sliced_threads=0 / nr=0 / decimate=0 / interlaced=0 / bluray_compat=0 / constrained_intra=0 / bframes=10 / b_pyramid=2 / b_adapt=2 / b_bias=0 / direct=3 / weightb=1 / open_gop=0 / weightp=2 / keyint=240 / keyint_min=23 / scenecut=40 / intra_refresh=0 / rc=2pass / mbtree=0 / bitrate=1650 / ratetol=1.0 / qcomp=0.60 / qpmin=0 / qpmax=51 / qpstep=4 / cplxblur=20.0 / qblur=0.5 / ip_ratio=1.40 / pb_ratio=1.30 / aq=1:1.00
Language : English
Default : Yes
Forced : No
Color range : Limited
Color primaries : BT.709
Transfer characteristics : BT.709
Matrix coefficients : BT.709

Audio #1
ID : 2
Format : AC-3
Format/Info : Audio Coding 3
Mode extension : CM (complete main)
Format settings, Endianness : Big
Codec ID : A_AC3
Duration : 2 h 41 min
Bit rate mode : Constant
Bit rate : 384 kb/s
Channel(s) : 6 channels
Channel positions : Front: L C R, Side: L R, LFE
Sampling rate : 48.0 kHz
Frame rate : 31.250 FPS (1536 spf)
Compression mode : Lossy
Stream size : 444 MiB (14%)
Title : Dub (iTunes)
Language : Russian
Default : Yes
Forced : No

Audio #2
ID : 3
Format : AC-3
Format/Info : Audio Coding 3
Mode extension : CM (complete main)
Format settings, Endianness : Big
Codec ID : A_AC3
Duration : 2 h 41 min
Bit rate mode : Constant
Bit rate : 256 kb/s
Channel(s) : 2 channels
Channel positions : Front: L R
Sampling rate : 48.0 kHz
Frame rate : 31.250 FPS (1536 spf)
Compression mode : Lossy
Stream size : 296 MiB (9%)
Title : AVO
Language : Russian
Default : No
Forced : No

Audio #3
ID : 4
Format : AC-3
Format/Info : Audio Coding 3
Mode extension : CM (complete main)
Format settings, Endianness : Big
Codec ID : A_AC3
Duration : 2 h 41 min
Bit rate mode : Constant
Bit rate : 160 kb/s
Channel(s) : 2 channels
Channel positions : Front: L R
Sampling rate : 48.0 kHz
Frame rate : 31.250 FPS (1536 spf)
Compression mode : Lossy
Stream size : 185 MiB (6%)
Title : Dub (iTunes)
Language : Ukrainian
Default : No
Forced : No

Audio #4
ID : 5
Format : AC-3
Format/Info : Audio Coding 3
Mode extension : CM (complete main)
Format settings, Endianness : Big
Codec ID : A_AC3
Duration : 2 h 41 min
Bit rate mode : Constant
Bit rate : 384 kb/s
Channel(s) : 6 channels
Channel positions : Front: L C R, Side: L R, LFE
Sampling rate : 48.0 kHz
Frame rate : 31.250 FPS (1536 spf)
Compression mode : Lossy
Stream size : 444 MiB (14%)
Language : English
Default : No
Forced : No

Text #1
ID : 6
Format : UTF-8
Codec ID : S_TEXT/UTF8
Codec ID/Info : UTF-8 Plain Text
Title : Forced
Language : Russian
Default : Yes
Forced : No

Text #2
ID : 7
Format : UTF-8
Codec ID : S_TEXT/UTF8
Codec ID/Info : UTF-8 Plain Text
Title : Full
Language : Russian
Default : No
Forced : No

Text #3
ID : 8
Format : UTF-8
Codec ID : S_TEXT/UTF8
Codec ID/Info : UTF-8 Plain Text
Title : Full
Language : English
Default : No
Forced : No

Menu
00:00:00.000 : en:1
00:04:49.415 : en:2
00:13:45.200 : en:3
00:18:29.150 : en:4
00:22:00.319 : en:5
00:25:59.349 : en:6
00:28:41.094 : en:7
00:33:45.106 : en:8
00:40:19.333 : en:9
00:49:59.454 : en:10
00:51:48.688 : en:11
00:59:52.254 : en:12
01:02:32.872 : en:13
01:04:28.612 : en:14
01:09:16.733 : en:15
01:17:40.778 : en:16
01:20:25.776 : en:17
01:26:28.430 : en:18
01:32:54.441 : en:19
01:39:58.490 : en:20
01:47:55.216 : en:21
01:53:00.229 : en:22
01:58:09.538 : en:23
02:06:23.990 : en:24
02:11:22.955 : en:25
02:15:50.097 : en:26
02:21:30.187 : en:27
02:29:50.729 : en:28
02:36:28.251 : en:29
02:38:51.227 : en:30


Релиз от:

Автор релиза: pb.wtf



Скачать Однажды в… Голливуде через торрент https://b.radikal.ru/b26/1911/5b/cbd4eda97251.png Скачать фильм Однажды в… Голливуде через торрент бесплантно в хорошем качестве Описание: Фильм повествует о череде событий, произошедших в Голливуде в 1969 году, на закате его «золотого века». По сюжету, известный ТВ ... 10 10 28
Info! Золотая раздача, скачанное не засчитывается.
Торрент: Зарегистрирован [2019-11-24 21:46] · скачан: 956 раз
Статус: √ проверено
Размер: 3.2 GB
Как cкачать? Как скачать Однажды в… Голливуде через торрент | qTorrent

% Раздел Тема Автор DL S | L
Фильмы 2019 [DVDrip, WEB-DLRip, HDrip] (DUB, MVO) [ 3.43 GB ] Однажды в… Голливуде / Once Upon a Time ... in Hollywood [2019 BDRip-AVC] DUB [] AVO [Дольский] - ExKinoRay Enigma2010 Скачать
242 | 14
Фильмы [HD 720p, 1080p] (Хороший звук DUB, MVO) [ 7.48 GB ] Однажды в… Голливуде / Once Upon a Time ... in Hollywood [2019 BDRip 720p AVO] от ExKinoRay morfyi Скачать
45 | 8

28-11-2019 20:33  

Отключить всю рекламу на сайте

27-11-2019 15:00 Однажды в… Голливуде Скачать торрент  

Фильм просто супер!!!!Получил громадное удовольствие!!!Браво Тарантино!!! Лео и Брэд играют потрясающе!!!Фильм для эстетов и настоящих любителей кино!!!!pb.wtf



27-11-2019 18:10 Однажды в… Голливуде Скачать торрент  

шняга полная с
южета нет.не понятно как лео и пит согласились сняться в этой шняге.....pb.wtf



27-11-2019 18:35 Однажды в… Голливуде Скачать торрент  

Шедевральный фильм все по канонам великого Тарантино!
Тем кто в восторге от омерзительной 8 смотреть просто ОБЯЗАТЕЛЬНОpb.wtf



28-11-2019 14:53 Однажды в… Голливуде Скачать торрент  

полный pb.wtf



28-11-2019 17:28 Однажды в… Голливуде Скачать торрент  

yurik2514 писал(а):

шняга полная с
южета нет.не понятно как лео и пит согласились сняться в этой шняге.....

сам ты шняга полная))))pb.wtf



28-11-2019 18:54 Однажды в… Голливуде Скачать торрент  

Тарантино удивил. Как у истинного фана лучшего режиссера всех времён именно от этой картины остались двоякое впечатление. Одно скажу точно, съёмки атмосфера, игра актеров... Тут максимум плюсов... Но есть и ложечка дегтя.... Уверенная такая... Такое впечатление что Тарантино снял этот фильм лично для себя, подарив зрителю последние минут 15))))pb.wtf



28-11-2019 20:16 Однажды в… Голливуде Скачать торрент  

Фильм понравился, но что бы его лучше понимать нужно знать на какое ранчо ездил герой Пита и кто такой Чарли, да и вообще чем так известен в Америке 69 год, история вполне реальная, в отличие от предыдущих фильмов Тарантино.pb.wtf



01-12-2019 06:18 Однажды в… Голливуде Скачать торрент  

Нет люди. Это не Тарантино. Это какое то недоразумение. Где "чтиво" которое я знаю наизусть. Где "псы" со своей жестокостью. Где резня как из "убить билла". Я не увидел ни захватывающего зрелища, ни великолепных диалогов, а только бездарность, без связность и унылость. Кончились идеи, так не снимай, не мучай зрителя.pb.wtf



    Дорогой пользователь! Огромная просьба, поблагодарите релизера, оцените раздачу и оставьте свои комментарий, если Вы скачали Однажды в… Голливуде через торрент бесплатно! Внесите свою лепту в развитие PiratBit!
    Комментировать посты могут только пользователи прошедшие не сложную регистрацию
    Показать сообщения:    

    Однажды в… Голливуде через торрент
    Скачать бесплатно Однажды в… Голливуде
    Однажды в… Голливуде скачать торрент
    Однажды в… Голливуде смотреть онлайн
    Cкачать фильм Однажды в… Голливуде бесплатно
    Однажды в… Голливуде скачать торрент в хорошем качестве
    Однажды в… Голливуде смотреть онлайн бесплатно в хорошем качестве


    Вы не можете начинать темы
    Вы не можете отвечать на сообщения
    Вы не можете редактировать свои сообщения
    Вы не можете удалять свои сообщения
    Вы не можете голосовать в опросах
    Вы не можете прикреплять файлы к сообщениям
    Вы можете скачивать файлы