Всегда рабочее зеркало просто перед .vidak.icu напиши любое слово или цифру, Пример http://tyq.vidak.icu

>

7.4

iTunes

7.4

2 сезон

9.4

1 сезон

1

7.4

2 сезон

7.2

iTunes

6.0

MVO

13

6.1

iTunes

8.3

Пиратка

30

ULTIMATE

pack

9.9

Лицензия

ВАЖНО

ИГРА 18+

pack

7.3

RePack

MK11

7.7

RePack

jed

7.8

RePack

fifa19

8.5

RePack

RDR2

RePack

NEED FOR SPEED™ PAYBACK

1 сезон

9 сезон

Бесстыжие 9 сезон

Все сериалы

все сериалы на PB.wtf

RePack

FAR CRY 5

Anonymous, добрый день, мы катастрофически не успеваем собрать деньги на оплату серверов, помогите нам пожалуйста 5,10,15р., для нас важна любая помощь . В качестве благодарности мы отключим Вам всю рекламу на сайте (укажите свой ник в строку Ваше имя)!

×
  
Magnet ссылка

Арахисовый сокол / The Peanut Butter Falcon (Тайлер Нилсон, Майк Шварц) [2019, Драма, комедия, приключения, BDRip-AVC] AVO [А.Важенин [BadBajo] - ExKinoRay pb.wtf

Арахисовый сокол через торрент pb.wtf

Раздают: 3 [ 0 KB/s ]
Размер: 1.67 GB | Добавлен: 2 года 1 мес. назад | Торрент скачан:79 раз
Смотреть онлайн Арахисовый сокол | Скачать    Ребята, помогите собрать деньги на оплату серверов!!!

25-11-2019 00:37 Арахисовый сокол Скачать торрент  

Информация о фильме
Название: Арахисовый сокол
Оригинальное название: The Peanut Butter Falcon
Год выпуска: 2019
Жанр: Приключения
Режиссер: Тайлер Нилсон, Майк Шварц
В ролях: Шайа ЛаБаф, Дакота Джонсон, Зак Готтзаген, Джон Хоукс, Томас Хейден Чёрч, Брюс Дерн, Джон Бернтал, Джэйк Робертс, Мик Фоли

Описание: Большое путешествие начинается с шага, а легендарное - с полета. Вылетев в окно, герой очутился в мире, где чего-то не хватало. Его новому другу - крупной суммы денег. Паре головорезов - головы друга. Молодой медсестре - любви. А ему - путешествий на плоту, погонь, пылающих костров и немного арахисового масла.

rating

Страна: США
Студия: Armory Films, 1993, Lucky Treehouse
Продолжительность: 01:36:56
Перевод: Авторский (одноголосый, закадровый) | А.Важенин [BadBajo]

Формат: MKV
Качество: BDRip-AVC
Видео: MPEG-4 AVC, 1024x428 (2.40:1), 23.976 fps, 2010 Kbps, 0.191 bit/pixel
Аудио: 48 kHz, AC3, 5.1, 448 Kbps | RUS |
Субтитры: Русские (полные (MENINSUB)), английские
General
Unique ID : 242485377065583795643842579018267554670 (0xB66CFC20E0857E139E507189C114F36E)
Complete name : F:\The.Peanut.Butter.Falcon.2019.BDRip.AVC.ExKinoRay.mkv
Format : Matroska
Format version : Version 2
File size : 1.67 GiB
Duration : 1 h 36 min
Overall bit rate : 2 459 kb/s
Movie name : The Peanut Butter Falcon 2019 from ExKinoRay
Encoded date : UTC 2019-11-24 19:50:59
Writing application : mkvmerge v5.6.0 ('Kenya Kane') built on May 27 2012 16:44:04
Writing library : libebml v1.2.3 + libmatroska v1.3.0

Video
ID : 1
Format : AVC
Format/Info : Advanced Video Codec
Format profile : High@L4.1
Format settings, CABAC : Yes
Format settings, ReFrames : 12 frames
Codec ID : V_MPEG4/ISO/AVC
Duration : 1 h 36 min
Bit rate : 2 010 kb/s
Width : 1 024 pixels
Height : 428 pixels
Display aspect ratio : 2.40:1
Frame rate mode : Constant
Frame rate : 23.976 (23976/1000) FPS
Color space : YUV
Chroma subsampling : 4:2:0
Bit depth : 8 bits
Scan type : Progressive
Bits/(Pixel*Frame) : 0.191
Stream size : 1.33 GiB (80%)
Title : Enigma
Writing library : x264 core 152 r2851 ba24899
Encoding settings : cabac=1 / ref=12 / deblock=1:-2:-2 / analyse=0x3:0x113 / me=umh / subme=10 / psy=1 / psy_rd=1.05:0.08 / mixed_ref=1 / me_range=32 / chroma_me=1 / trellis=2 / 8x8dct=1 / cqm=0 / deadzone=21,11 / fast_pskip=0 / chroma_qp_offset=-3 / threads=12 / lookahead_threads=3 / sliced_threads=0 / nr=0 / decimate=0 / interlaced=0 / bluray_compat=0 / constrained_intra=0 / bframes=12 / b_pyramid=2 / b_adapt=2 / b_bias=0 / direct=3 / weightb=1 / open_gop=0 / weightp=2 / keyint=240 / keyint_min=23 / scenecut=40 / intra_refresh=0 / rc=2pass / mbtree=0 / bitrate=2010 / ratetol=1.0 / qcomp=0.60 / qpmin=0 / qpmax=51 / qpstep=4 / cplxblur=20.0 / qblur=0.5 / ip_ratio=1.40 / pb_ratio=1.30 / aq=1:1.00
Language : English
Default : Yes
Forced : No
Color range : Limited
Color primaries : BT.709
Transfer characteristics : BT.709
Matrix coefficients : BT.709

Audio
ID : 2
Format : AC-3
Format/Info : Audio Coding 3
Mode extension : CM (complete main)
Format settings, Endianness : Big
Codec ID : A_AC3
Duration : 1 h 36 min
Bit rate mode : Constant
Bit rate : 448 kb/s
Channel(s) : 6 channels
Channel positions : Front: L C R, Side: L R, LFE
Sampling rate : 48.0 kHz
Frame rate : 31.250 FPS (1536 spf)
Compression mode : Lossy
Stream size : 311 MiB (18%)
Title : AVO (BadBajp)
Language : Russian
Default : Yes
Forced : No

Text #1
ID : 3
Format : UTF-8
Codec ID : S_TEXT/UTF8
Codec ID/Info : UTF-8 Plain Text
Title : Full (MENINSUB)
Language : Russian
Default : No
Forced : No

Text #2
ID : 4
Format : UTF-8
Codec ID : S_TEXT/UTF8
Codec ID/Info : UTF-8 Plain Text
Language : English
Default : No
Forced : No

Menu
00:00:00.000 : en:Chapter 01
00:08:14.243 : en:Chapter 02
00:17:54.073 : en:Chapter 03
00:25:26.191 : en:Chapter 04
00:32:30.949 : en:Chapter 05
00:42:37.555 : en:Chapter 06
00:50:34.906 : en:Chapter 07
00:58:02.270 : en:Chapter 08
01:04:19.856 : en:Chapter 09
01:13:20.396 : en:Chapter 10
01:21:12.617 : en:Chapter 11
01:31:09.464 : en:Chapter 12


Релиз от:

Автор релиза: pb.wtf



Скачать Арахисовый сокол через торрент https://c.radikal.ru/c35/1911/f2/5cdaedb22dde.png Скачать, смотреть онлайн Арахисовый сокол бесплантно в хорошем качестве Описание: Большое путешествие начинается с шага, а легендарное - с полета. Вылетев в окно, герой очутился в мире, где чего-то не хватало. ... 10 10 2
Info! Золотая раздача, скачанное не засчитывается.
Торрент: Зарегистрирован [2019-11-25 00:37] · скачан: 79 раз
Статус: √ проверено
Размер: 1.67 GB
Как cкачать? Как скачать Арахисовый сокол через торрент | UTorrent

28-11-2019 20:33  

Отключить всю рекламу на сайте

    Дорогой пользователь! Огромная просьба, поблагодарите релизера, оцените раздачу и оставьте свои комментарий, если Вы скачали Арахисовый сокол через торрент бесплатно!
    Комментировать посты могут только пользователи прошедшие не сложную регистрацию
    Показать сообщения:    

    Арахисовый сокол через торрент
    Скачать бесплатно Арахисовый сокол
    Арахисовый сокол скачать торрент
    Арахисовый сокол смотреть онлайн
    Cкачать фильм Арахисовый сокол бесплатно
    Арахисовый сокол скачать торрент в хорошем качестве
    Арахисовый сокол смотреть онлайн бесплатно в хорошем качестве


    Вы не можете начинать темы
    Вы не можете отвечать на сообщения
    Вы не можете редактировать свои сообщения
    Вы не можете удалять свои сообщения
    Вы не можете голосовать в опросах
    Вы не можете прикреплять файлы к сообщениям
    Вы можете скачивать файлы