Ссылка на приватное зеркало нашего сайта всего за 1$. Внимание количество ограничено!!!

2 сезон

iTunes

1 сезон

1

2 сезон

2 сезон

iTunes

1 сезон

RePack

30

Ultimate

ВАЖНО

ИГРА 18+

pack

RePack

MK11
pack

Забери бонус

RePack

jed

!!Акция!!

Alien_Rage

RePack

fifa19

RePack

Assassins Creed: Odyssey

RePack

NEED FOR SPEED™ PAYBACK

4 сезон

9 сезон

Бесстыжие 9 сезон

Все сериалы

все сериалы на PB.wtf

RePack

FAR CRY 5
  

Добро пожаловать на каникулы / Nightmare Beach (Умберто Ленци) [1989 г., ужасы, BDRemux 1080p] AVO (Андрей Гаврилов) pb.wtf

Добро пожаловать на каникулы через торрент pb.wtf

Размер: 16.39 GB | Добавлен: 1 год назад | Торрент скачан:1 раз
Скачать  

25-11-2019 07:22 Добро пожаловать на каникулы Скачать торрент  

Добро пожаловать на каникулы / Nightmare Beach
Год выпуска: 1989

Страна: США, Италия

Жанр: Ужасы
Продолжительность: 01:30:54

Перевод: Авторский (одноголосый) - Андрей Гаврилов

Субтитры: английские (SDH)

Режиссер: Умберто Ленци

rating

В ролях: Николас Де То, Сара Бакстон, Роули Вальверде, Лэнс ЛеГолт, Майкл Паркс, Джон Сэксон, Бен Стотс, Грегг Тодд Дэвис, Ямилет Хидальго

Описание: Два приятеля приезжают в курортный городок, где накануне был казнён лидер местной группировки байкеров. Наутро могила казнённого оказывается пустой, а по улицам начинает колесить затянутый в кожу мотоциклист, чей «электрифицированный» байк несёт смерть окружающим. Один из друзей становится жертвой призрачного гонщика, и поскольку полиция и мэрия пытаются скрыть присутствие в городе маньяка, его товарищ вместе с местной барменшей начинает самостоятельные поиски убийцы.
Качество: BDRemux 1080p
Формат: MKV
Видео: MPEG-4 AVC, 25000 Кбит/с, 1920x1080, 23.976 кадр/с
Аудио#1: Русский, AC-3, 2 ch, 192 Кбит/с - AVO
Аудио#2: Английский, FLAC, 2 ch, 642 Кбит/с
Видео
Идентификатор : 1
Формат : AVC
Формат/Информация : Advanced Video Codec
Профиль формата : High@L4.1
Настройки формата : CABAC / 4 Ref Frames
Параметр CABAC формата : Да
Параметр RefFrames формата : 4 кадра
Идентификатор кодека : V_MPEG4/ISO/AVC
Продолжительность : 1 ч. 30 м.
Вид битрейта : Переменный
Битрейт : 25,0 Мбит/сек
Максимальный битрейт : 35,0 Мбит/сек
Ширина : 1920 пикселей
Высота : 1080 пикселей
Соотношение сторон : 16:9
Режим частоты кадров : Постоянный
Частота кадров : 23,976 (24000/1001) кадра/сек
Стандарт вещания : Component
Цветовое пространство : YUV
Субдискретизация насыщенности : 4:2:0
Битовая глубина : 8 бит
Тип развёртки : Прогрессивная
Бит/(Пиксели*Кадры) : 0.503
Размер потока : 15,9 Гбайт (97%)
Библиотека кодирования : x264 core 148
Настройки программы : cabac=1 / ref=4 / deblock=1:0:0 / analyse=0x3:0x113 / me=hex / subme=7 / psy=1 / psy_rd=1.00:0.00 / mixed_ref=1 / me_range=16 / chroma_me=1 / trellis=1 / 8x8dct=1 / cqm=1 / deadzone=21,11 / fast_pskip=1 / chroma_qp_offset=-2 / threads=6 / lookahead_threads=1 / sliced_threads=0 / slices=4 / nr=0 / decimate=1 / interlaced=0 / minigop=1 / stitchable=1 / constrained_intra=0 / bframes=2 / b_pyramid=0 / b_adapt=1 / b_bias=0 / direct=1 / weightb=1 / open_gop=1 / weightp=1 / keyint=24 / keyint_min=1 / scenecut=40 / intra_refresh=0 / rc_lookahead=24 / rc=2pass / mbtree=1 / bitrate=25000 / ratetol=1.0 / qcomp=0.60 / qpmin=3 / qpmax=69 / qpstep=4 / cplxblur=20.0 / qblur=0.5 / vbv_maxrate=35000 / vbv_bufsize=30000 / nal_hrd=vbr / filler=0 / ip_ratio=1.40 / aq=1:1.00
Default : Да
Forced : Нет
Цветовой диапазон : Limited
Основные цвета : BT.709
Характеристики трансфера : BT.709
Коэффициенты матрицы : BT.709

Аудио #1
Идентификатор : 2
Формат : AC-3
Формат/Информация : Audio Coding 3
Коммерческое название : Dolby Digital
Идентификатор кодека : A_AC3
Продолжительность : 1 ч. 30 м.
Вид битрейта : Постоянный
Битрейт : 192 Кбит/сек
Каналы : 2 канала
ChannelLayout : L R
Частота : 48,0 КГц
Частота кадров : 31,250 кадров/сек (1536 SPF)
Битовая глубина : 16 бит
Метод сжатия : С потерями
Размер потока : 125 Мбайт (1%)
Заголовок : Андрей Гаврилов
Язык : Russian
ServiceKind/String : Complete Main
Default : Да
Forced : Нет

Аудио #2
Идентификатор : 3
Формат : FLAC
Формат/Информация : Free Lossless Audio Codec
Идентификатор кодека : A_FLAC
Продолжительность : 1 ч. 30 м.
Вид битрейта : Переменный
Битрейт : 642 Кбит/сек
Каналы : 2 канала
ChannelLayout : L R
Частота : 48,0 КГц
Частота кадров : 11,719 кадров/сек (4096 SPF)
Битовая глубина : 24 бит
Метод сжатия : Без потерь
Размер потока : 418 Мбайт (2%)
Библиотека кодирования : libFLAC 1.2.1 (UTC 2007-09-17)
Язык : English
Default : Нет
Forced : Нет

Текст
Идентификатор : 4
Формат : UTF-8
Идентификатор кодека : S_TEXT/UTF8
Идентификатор кодека/Информация : UTF-8 Plain Text
Продолжительность : 1 ч. 30 м.
Битрейт : 51 бит/сек
ElementCount : 1398
Размер потока : 34,2 Кбайт (0%)
Заголовок : SDH
Язык : English
Default : Нет
Forced : Нет

Меню
00:00:00.000 : :Chapter 01
00:05:41.007 : :Chapter 02
00:13:17.171 : :Chapter 03
00:19:40.762 : :Chapter 04
00:25:34.824 : :Chapter 05
00:36:34.233 : :Chapter 06
00:47:02.152 : :Chapter 07
00:54:03.490 : :Chapter 08
00:59:17.929 : :Chapter 09
01:07:25.332 : :Chapter 10
01:13:25.025 : :Chapter 11
01:22:40.664 : :Chapter 12
01:30:52.488 : :Chapter 13

скриншот   скриншот   скриншот   скриншот   скриншот  

pb.wtf



Скачать Добро пожаловать на каникулы через торрент http://pic1.kartinco.top/images/12/hcv5z.jpg Скачать фильм Добро пожаловать на каникулы через торрент бесплантно в хорошем качестве Описание: Два приятеля приезжают в курортный городок, где накануне был казнён лидер местной группировки байкеров. Наутро могила казнённого ... 5 10 1
Торрент: Зарегистрирован [2019-11-25 07:22] · скачан: 1 раз
Статус: √ проверено
Размер: 16.39 GB
Как cкачать? Как скачать Добро пожаловать на каникулы через торрент | qTorrent

28-11-2019 20:33  

Отключить всю рекламу на сайте

    Дорогой пользователь! Огромная просьба, поблагодарите релизера, оцените раздачу и оставьте свои комментарий, если Вы скачали Добро пожаловать на каникулы через торрент бесплатно! Внесите свою лепту в развитие PiratBit!
    Комментировать посты могут только пользователи прошедшие не сложную регистрацию
    Показать сообщения:    

    Добро пожаловать на каникулы через торрент
    Скачать бесплатно Добро пожаловать на каникулы
    Добро пожаловать на каникулы скачать торрент
    Добро пожаловать на каникулы смотреть онлайн
    Cкачать фильм Добро пожаловать на каникулы бесплатно
    Добро пожаловать на каникулы скачать торрент в хорошем качестве
    Добро пожаловать на каникулы смотреть онлайн бесплатно в хорошем качестве


    Вы не можете начинать темы
    Вы не можете отвечать на сообщения
    Вы не можете редактировать свои сообщения
    Вы не можете удалять свои сообщения
    Вы не можете голосовать в опросах
    Вы не можете прикреплять файлы к сообщениям
    Вы можете скачивать файлы