новый адрес
Ссылка на приватное зеркало всего за 1$. Внимание количество ограничено!!!

iTunes

1+1

iTunes

мы

WEB-DL

1

iTunes

Чернобыль

iTunes

Ральф против интернета

Лицензия

ПШазам

Лицензия

Оно 2

Лицензия

30
pack

Вам бонус

ВАЖНО

!!Акция!!

Alien_RageХит недели

RePack

Resident Evil 21

ИГРА 18+

pack

RePack

jed

!!Акция!!

Alien_Rage

RePack

fifa19

RePack

Assassins Creed: Odyssey

RePack

NEED FOR SPEED™ PAYBACK

3 сезон

9 сезон

Бесстыжие 9 сезон

Все сериалы

все сериалы на PB.wtf

RePack

FAR CRY 5
Ребята, катастрофически не хватает 1900р. для оплаты серверов за Октябрь (всвязи с блокировками трафик упал в 3 раза), 1-2р., выручайте.
  

Приключения барона Мюнхгаузена / The Adventures of Baron Munchausen (Терри Гиллиам) [1988, фэнтези, комедия, приключения, BDRip 1080p by msltel] 4 x MVO, 2 x AVO pb.wtf

Приключения барона Мюнхгаузена через торрент pb.wtf

Раздают: 1 [ 0 KB/s ]
Размер: 17.17 GB | Добавлен: 12 д. назад | Торрент скачан:6 раз
Скачать  

25-11-2019 09:25 Приключения барона Мюнхгаузена Скачать торрент  

Название: Приключения барона Мюнхгаузена
Оригинальное название: The Adventures of Baron Munchausen
Год выпуска: 1988
Страна: Великобритания, Италия
Жанр: фэнтези, комедия, приключения
Продолжительность: 02:06:17
Перевод: профессиональный многоголосый, авторский

Режиссер: Терри Гиллиам
В ролях: Джон Невилл, Эрик Айдл, Сара Полли, Оливер Рид, Чарльз МакКоуэн, Уинстон Дэннис, Джек Пёрвис, Валентина Кортезе, Джонатан Прайс, Билл Патерсон, Питер Джефри, Ума Турман, Элисон Стэдмен, Рэй Купер, Дон Хендерсон, Робин Уильямс, Стинг, Эндрю МакЛахлан, Мохамед Бадрсалем, Киран Шах, Франко Аддуччи, Хосе Лифантэ, Этторе Мартини, Антонио Пистилло, Майкл Полли, Тони Смарт, Лаура Д'Ариста, Терри Гиллиам

О фильме: Единственный, кто знает всю правду о Мюнхгаузене, - сам барон. Легендарный герой рассказывает историю своих невероятных приключений. Но неужели он действительно летал на раскалённом пушечном ядре, сражался с трёхголовым грифоном, путешествовал на Луну, видел обнаженную Венеру, выходящую из морской раковины и, в конце концов, столкнулся нос к носу с самой Смертью? В это невозможно поверить... но разве знаменитый Мюнхгаузен может врать? Фильм по одноимённой книге Рудольфа Эриха Распе.



Качество: BDRip 1080p
Формат: MKV
Видео: MPEG-4 AVC, 15.2 Mбит/с, 1920x1040
Аудио 1: русский, AC3, 448 kbps, 6 ch, 48 kHz [закадровый многоголосый, R5]
Аудио 2: русский, DTS, 1509 kbps, 6 ch, 48 kHz [закадровый многоголосый, Позитив Мультимедиа]
Аудио 3: русский, AC3, 192 kbps, 2 ch, 48 kHz [закадровый многоголосый, т/к Россия]
Аудио 4: русский, AC3, 192 kbps, 2 ch, 48 kHz [закадровый многоголосый, Первый канал]
Аудио 5: русский, AC3, 224 kbps, 2 ch, 48 kHz [авторский, Василий Горчаков]
Аудио 6: русский, AC3, 192 kbps, 2 ch, 48 kHz [авторский, Юрий Живов]
Аудио 7: английский, DTS, 1509 kbps, 6 ch, 48 kHz [оригинал]
Субтитры 1: русские (forced)
Субтитры 2: русские
Субтитры 3: английские
Главы/чаптеры
Общее
Уникальный идентификатор : 209483762221208655855165921352072516813 (0x9D991AE4B8042C5BB77048B7754B54CD)
Полное имя : D:\Video\Приключения барона Мюнхгаузена.1988.BDRip 1080p by msltel.mkv
Формат : Matroska
Версия формата : Version 4
Размер файла : 17,2 Гбайт
Продолжительность : 2 ч. 6 м.
Общий поток : 19,5 Мбит/сек
Название фильма : Rip by msltel
Дата кодирования : UTC 2019-11-25 08:06:34
Программа кодирования : mkvmerge v8.2.0 ('World of Adventure') 64bit
Библиотека кодирования : libebml v1.3.1 + libmatroska v1.4.2

Видео
Идентификатор : 1
Формат : AVC
Формат/Информация : Advanced Video Codec
Профиль формата : High@L4.1
Настройки формата : CABAC / 4 Ref Frames
Параметр CABAC формата : Да
Параметр RefFrames формата : 4 кадра
Идентификатор кодека : V_MPEG4/ISO/AVC
Продолжительность : 2 ч. 6 м.
Битрейт : 15,2 Мбит/сек
Ширина : 1920 пикселей
Высота : 1040 пикселей
Соотношение сторон : 1,85:1
Режим частоты кадров : Постоянный
Частота кадров : 23,976 (24000/1001) кадра/сек
Цветовое пространство : YUV
Субдискретизация насыщенности : 4:2:0
Битовая глубина : 8 бит
Тип развёртки : Прогрессивная
Бит/(Пиксели*Кадры) : 0.317
Размер потока : 13,4 Гбайт (78%)
Библиотека кодирования : x264 core 157 r2935 545de2f
Настройки программы : cabac=1 / ref=4 / deblock=1:-2:-2 / analyse=0x3:0x113 / me=umh / subme=11 / psy=1 / psy_rd=1.00:0.15 / mixed_ref=1 / me_range=32 / chroma_me=1 / trellis=2 / 8x8dct=1 / cqm=0 / deadzone=21,11 / fast_pskip=0 / chroma_qp_offset=-3 / threads=6 / lookahead_threads=1 / sliced_threads=0 / nr=0 / decimate=1 / interlaced=0 / bluray_compat=0 / constrained_intra=0 / bframes=7 / b_pyramid=2 / b_adapt=2 / b_bias=0 / direct=1 / weightb=1 / open_gop=0 / weightp=2 / keyint=230 / keyint_min=23 / scenecut=40 / intra_refresh=0 / rc_lookahead=40 / rc=crf / mbtree=1 / crf=20.9 / qcomp=0.60 / qpmin=0 / qpmax=69 / qpstep=4 / vbv_maxrate=50000 / vbv_bufsize=62500 / crf_max=0.0 / nal_hrd=none / filler=0 / ip_ratio=1.40 / aq=1:1.00
Язык : English
Default : Да
Forced : Нет

Аудио #1
Идентификатор : 2
Формат : AC-3
Формат/Информация : Audio Coding 3
Коммерческое название : Dolby Digital
Идентификатор кодека : A_AC3
Продолжительность : 2 ч. 6 м.
Вид битрейта : Постоянный
Битрейт : 448 Кбит/сек
Каналы : 6 каналов
ChannelLayout : L R C LFE Ls Rs
Частота : 48,0 КГц
Частота кадров : 31,250 кадров/сек (1536 SPF)
Метод сжатия : С потерями
Размер потока : 405 Мбайт (2%)
Заголовок : MVO R5
Язык : Russian
ServiceKind/String : Complete Main
Default : Да
Forced : Нет

Аудио #2
Идентификатор : 3
Формат : DTS
Формат/Информация : Digital Theater Systems
Идентификатор кодека : A_DTS
Продолжительность : 2 ч. 6 м.
Вид битрейта : Постоянный
Битрейт : 1509 Кбит/сек
Каналы : 6 каналов
ChannelLayout : C L R Ls Rs LFE
Частота : 48,0 КГц
Частота кадров : 93,750 кадра/сек (512 SPF)
Битовая глубина : 24 бит
Метод сжатия : С потерями
Размер потока : 1,33 Гбайт (8%)
Заголовок : MVO Позитив-Мультимедиа
Язык : Russian
Default : Нет
Forced : Нет

Аудио #3
Идентификатор : 4
Формат : AC-3
Формат/Информация : Audio Coding 3
Коммерческое название : Dolby Digital
Идентификатор кодека : A_AC3
Продолжительность : 2 ч. 6 м.
Вид битрейта : Постоянный
Битрейт : 192 Кбит/сек
Каналы : 2 канала
ChannelLayout : L R
Частота : 48,0 КГц
Частота кадров : 31,250 кадров/сек (1536 SPF)
Метод сжатия : С потерями
Размер потока : 173 Мбайт (1%)
Заголовок : MVO т/к Россия
Язык : Russian
ServiceKind/String : Complete Main
Default : Нет
Forced : Нет

Аудио #4
Идентификатор : 5
Формат : AC-3
Формат/Информация : Audio Coding 3
Коммерческое название : Dolby Digital
Идентификатор кодека : A_AC3
Продолжительность : 2 ч. 6 м.
Вид битрейта : Постоянный
Битрейт : 192 Кбит/сек
Каналы : 2 канала
ChannelLayout : L R
Частота : 48,0 КГц
Частота кадров : 31,250 кадров/сек (1536 SPF)
Метод сжатия : С потерями
Размер потока : 173 Мбайт (1%)
Заголовок : MVO Первый канал
Язык : Russian
ServiceKind/String : Complete Main
Default : Нет
Forced : Нет

Аудио #5
Идентификатор : 6
Формат : AC-3
Формат/Информация : Audio Coding 3
Коммерческое название : Dolby Digital
Идентификатор кодека : A_AC3
Продолжительность : 2 ч. 6 м.
Вид битрейта : Постоянный
Битрейт : 224 Кбит/сек
Каналы : 2 канала
ChannelLayout : L R
Частота : 48,0 КГц
Частота кадров : 31,250 кадров/сек (1536 SPF)
Метод сжатия : С потерями
Размер потока : 202 Мбайт (1%)
Заголовок : Василий Горчаков
Язык : Russian
ServiceKind/String : Complete Main
Default : Нет
Forced : Нет

Аудио #6
Идентификатор : 7
Формат : AC-3
Формат/Информация : Audio Coding 3
Коммерческое название : Dolby Digital
Идентификатор кодека : A_AC3
Продолжительность : 2 ч. 6 м.
Вид битрейта : Постоянный
Битрейт : 192 Кбит/сек
Каналы : 2 канала
ChannelLayout : L R
Частота : 48,0 КГц
Частота кадров : 31,250 кадров/сек (1536 SPF)
Метод сжатия : С потерями
Размер потока : 173 Мбайт (1%)
Заголовок : Юрий Живов
Язык : Russian
ServiceKind/String : Complete Main
Default : Нет
Forced : Нет

Аудио #7
Идентификатор : 8
Формат : DTS
Формат/Информация : Digital Theater Systems
Идентификатор кодека : A_DTS
Продолжительность : 2 ч. 6 м.
Вид битрейта : Постоянный
Битрейт : 1509 Кбит/сек
Каналы : 6 каналов
ChannelLayout : C L R Ls Rs LFE
Частота : 48,0 КГц
Частота кадров : 93,750 кадра/сек (512 SPF)
Битовая глубина : 24 бит
Метод сжатия : С потерями
Размер потока : 1,33 Гбайт (8%)
Заголовок : original
Язык : English
Default : Нет
Forced : Нет

Текст #1
Идентификатор : 9
Формат : UTF-8
Идентификатор кодека : S_TEXT/UTF8
Идентификатор кодека/Информация : UTF-8 Plain Text
Продолжительность : 1 ч. 52 м.
Битрейт : 1 бит/сек
ElementCount : 30
Размер потока : 1,37 Кбайт (0%)
Заголовок : русские форсир.
Язык : Russian
Default : Да
Forced : Да

Текст #2
Идентификатор : 10
Формат : UTF-8
Идентификатор кодека : S_TEXT/UTF8
Идентификатор кодека/Информация : UTF-8 Plain Text
Продолжительность : 1 ч. 59 м.
Битрейт : 67 бит/сек
ElementCount : 1298
Размер потока : 59,4 Кбайт (0%)
Заголовок : русские
Язык : Russian
Default : Нет
Forced : Нет

Текст #3
Идентификатор : 11
Формат : UTF-8
Идентификатор кодека : S_TEXT/UTF8
Идентификатор кодека/Информация : UTF-8 Plain Text
Продолжительность : 1 ч. 59 м.
Битрейт : 44 бит/сек
ElementCount : 1213
Размер потока : 38,9 Кбайт (0%)
Заголовок : английские
Язык : English
Default : Нет
Forced : Нет

Меню
00:00:00.000 : en:Chapter 1
00:03:40.009 : en:Chapter 2
00:05:37.211 : en:Chapter 3
00:12:52.144 : en:Chapter 4
00:14:36.542 : en:Chapter 5
00:18:28.146 : en:Chapter 6
00:24:50.112 : en:Chapter 7
00:31:41.146 : en:Chapter 8
00:36:26.306 : en:Chapter 9
00:41:14.052 : en:Chapter 10
00:45:05.701 : en:Chapter 11
00:51:03.516 : en:Chapter 12
00:53:33.333 : en:Chapter 13
00:56:15.744 : en:Chapter 14
01:01:39.193 : en:Chapter 15
01:04:13.137 : en:Chapter 16
01:11:32.493 : en:Chapter 17
01:15:22.970 : en:Chapter 18
01:22:37.287 : en:Chapter 19
01:31:29.657 : en:Chapter 20
01:43:13.041 : en:Chapter 21
01:58:40.493 : en:Chapter 22
pb.wtf



Скачать Приключения барона Мюнхгаузена через торрент https://d.radikal.ru/d34/1911/6a/2fec13f5efca.png Скачать фильм Приключения барона Мюнхгаузена через торрент бесплантно в хорошем качестве О фильме: Единственный, кто знает всю правду о Мюнхгаузене, - сам барон. Легендарный герой рассказывает историю своих невероятных ... 10 10 1
Торрент: Зарегистрирован [2019-11-25 09:25] · скачан: 6 раз
Статус: √ проверено
Размер: 17.17 GB
Как cкачать? Как скачать Приключения барона Мюнхгаузена через торрент | qTorrent

% Раздел Тема Автор DL S | L
Арт-хаус и авторское кино [ 6.5 GB ] барона Мюнхгаузена / The Adventures of Baron Munchausen [1988 BDRip 720p by msltel] 4 x MVO 2 x AVO msltel Скачать
8 | 0

28-11-2019 20:33  

Отключить всю рекламу на сайте

25-11-2019 12:25 Приключения барона Мюнхгаузена Скачать торрент  

Да как дышит pb.wtf



    Дорогой пользователь! Огромная просьба, поблагодарите релизера, оцените раздачу и оставьте свои комментарий, если Вы скачали Приключения барона Мюнхгаузена через торрент бесплатно! Внесите свою лепту в развитие PiratBit!
    Комментировать посты могут только пользователи прошедшие не сложную регистрацию
    Показать сообщения:    

    Приключения барона Мюнхгаузена через торрент
    Скачать бесплатно Приключения барона Мюнхгаузена
    Приключения барона Мюнхгаузена скачать торрент
    Приключения барона Мюнхгаузена смотреть онлайн
    Cкачать фильм Приключения барона Мюнхгаузена бесплатно
    Приключения барона Мюнхгаузена скачать торрент в хорошем качестве
    Приключения барона Мюнхгаузена смотреть онлайн бесплатно в хорошем качестве


    Вы не можете начинать темы
    Вы не можете отвечать на сообщения
    Вы не можете редактировать свои сообщения
    Вы не можете удалять свои сообщения
    Вы не можете голосовать в опросах
    Вы не можете прикреплять файлы к сообщениям
    Вы можете скачивать файлы