Ссылка на приватное зеркало всего за 1$. Внимание количество ограничено!!!

OK

1+1

iTunes

мы

OK

1

WEB-DLRip

Джокер

Пифагор

Ведьмак / The Witcher сериал

Лицензия

ПШазам

ОК

Оно 2

iTunes

30
pack

Вам бонус

ВАЖНО

!!Акция!!

Alien_RageХит недели

RePack

Resident Evil 21

ИГРА 18+

pack

RePack

jed

!!Акция!!

Alien_Rage

RePack

fifa19

RePack

Assassins Creed: Odyssey

RePack

NEED FOR SPEED™ PAYBACK

4 сезон

9 сезон

Бесстыжие 9 сезон

Все сериалы

все сериалы на PB.wtf

RePack

FAR CRY 5
  

Добыча / Prey (Франк Халфун) [2019, Ужасы, триллер, детектив, приключения, WEB-DL 1080p] DUB [iTunes] pb.wtf

Добыча через торрент pb.wtf

Раздают: 5 [ 166 KB/s ]
Размер: 5.14 GB | Добавлен: 1 мес. 22 д. назад | Торрент скачан:196 раз
Скачать  

25-11-2019 16:08 Добыча Скачать торрент  

Добыча / Prey
Год выпуска: 2019
Страна: США
Жанр: Ужасы, триллер, детектив, приключения
Продолжительность: 01:25:06
Перевод: Дублированный | iTunes
Субтитры: английские (полные, SDH)

Режиссер: Франк Халфун

rating

В ролях: Логан Миллер, Кристин Фросет, Джолин Андерсон, Джеррика Лай, Фодисо Динтве, Энтони Дженсен, Джоди Мортара, Вела Клафф, Joey Adanalian, Нэйтан Хили и др.

Описание: Трудного подростка отправляют на перевоспитание на безлюдный заброшенный остров по популярной «программе выживания в экстремальных условиях». Но вскоре парень понимает, что на острове он далеко не один…

Качество: WEB-DL 1080p
Формат: MKV

Видео: MPEG-4 AVC, 1920x816, 7612 kbps, 23,976 fps
Звук#1: русский, AC3, 5.1 ch, 48 kHz, 384 kbps | iTunes
Звук#2: английский, E-AC3, 5.1 ch, 48 kHz, 640 kbps
скриншот  скриншот  скриншот  скриншот  скриншот  

Общее
Уникальный идентификатор : 235374548436678303735083269062243323761 (0xB1137D35882BD77EAB098295F9470F71)
Полное имя : G:Torrent2PreyWEBDL1080p.mkv
Формат : Matroska
Версия формата : Version 4 / Version 2
Размер файла : 5,14 Гбайт
Продолжительность : 1 ч. 25 м.
Общий поток : 8638 Кбит/сек
Дата кодирования : UTC 2019-11-25 15:24:25
Программа кодирования : mkvmerge v9.5.0 ('Quiet Fire') 64bit
Библиотека кодирования : libebml v1.3.4 + libmatroska v1.4.5

Видео
Идентификатор : 1
Формат : AVC
Формат/Информация : Advanced Video Codec
Профиль формата : High@L4
Настройки формата : CABAC / 4 Ref Frames
Параметр CABAC формата : Да
Параметр RefFrames формата : 4 кадра
Идентификатор кодека : V_MPEG4/ISO/AVC
Продолжительность : 1 ч. 25 м.
Вид битрейта : Постоянный
Битрейт : 7612 Кбит/сек
Номинальный битрейт : 10000 Кбит/сек
Ширина : 1920 пикселей
Высота : 816 пикселей
Соотношение сторон : 2,35:1
Режим частоты кадров : Постоянный
Частота кадров : 23,976 (24000/1001) кадра/сек
Цветовое пространство : YUV
Субдискретизация насыщенности : 4:2:0
Битовая глубина : 8 бит
Тип развёртки : Прогрессивная
Бит/(Пиксели*Кадры) : 0.203
Размер потока : 4,53 Гбайт (88%)
Язык : English
Default : Да
Forced : Нет
Цветовой диапазон : Limited
Основные цвета : BT.709
Характеристики трансфера : BT.709
Коэффициенты матрицы : BT.709

Аудио #1
Идентификатор : 2
Формат : AC-3
Формат/Информация : Audio Coding 3
Параметр Endianness формата : Big
Идентификатор кодека : A_AC3
Продолжительность : 1 ч. 25 м.
Вид битрейта : Постоянный
Битрейт : 384 Кбит/сек
Каналы : 6 каналов
Расположение каналов : Front: L C R, Side: L R, LFE
Частота : 48,0 КГц
Частота кадров : 31,250 кадров/сек (1536 SPF)
Битовая глубина : 16 бит
Метод сжатия : С потерями
Размер потока : 234 Мбайт (4%)
Заголовок : rus
Язык : Russian
Default : Да
Forced : Нет

Аудио #2
Идентификатор : 3
Формат : E-AC-3
Формат/Информация : Enhanced Audio Coding 3
Параметр Endianness формата : Big
Идентификатор кодека : A_EAC3
Продолжительность : 1 ч. 25 м.
Вид битрейта : Постоянный
Битрейт : 640 Кбит/сек
Каналы : 6 каналов
Расположение каналов : Front: L C R, Side: L R, LFE
Частота : 48,0 КГц
Частота кадров : 187,500 кадров/сек (256 SPF)
Метод сжатия : С потерями
Размер потока : 390 Мбайт (7%)
Заголовок : eng
Язык : English
Default : Нет
Forced : Нет

Текст #1
Идентификатор : 4
Формат : UTF-8
Идентификатор кодека : S_TEXT/UTF8
Идентификатор кодека/Информация : UTF-8 Plain Text
Продолжительность : 1 ч. 21 м.
Битрейт : 19 бит/сек
ElementCount : 514
Размер потока : 11,6 Кбайт (0%)
Заголовок : engFull
Язык : English
Default : Нет
Forced : Нет

Текст #2
Идентификатор : 5
Формат : UTF-8
Идентификатор кодека : S_TEXT/UTF8
Идентификатор кодека/Информация : UTF-8 Plain Text
Продолжительность : 1 ч. 24 м.
Битрейт : 23 бит/сек
ElementCount : 701
Размер потока : 14,8 Кбайт (0%)
Заголовок : engSDH
Язык : English
Default : Нет
Forced : Нет

pb.wtf



Скачать Добыча через торрент http://lostpix.com/thumbs/2019-11/24/wk27ty5t8fku6oriohkxei8ja.png Скачать фильм Добыча через торрент бесплантно в хорошем качестве Описание: Трудного подростка отправляют на перевоспитание на безлюдный заброшенный остров по популярной «программе выживания в ... 9.3 10 11
Торрент: Зарегистрирован [2019-11-25 16:08] · скачан: 196 раз
Статус: √ проверено
Размер: 5.14 GB
Как cкачать? Как скачать Добыча через торрент | qTorrent

% Раздел Тема Автор DL S | L
Фильмы 2019-2020 [DVDrip, WEB-DLRip, HDrip] (DUB, MVO) [ 1.33 GB ] Добыча / Prey [2019 WEB-DLRip-AVC] bober100 Скачать
5 | 0
Фильмы 2019-2020 [DVDrip, WEB-DLRip, HDrip] (DUB, MVO) [ 1.45 GB ] Добыча / Prey [2019 WEB-DLRip] bober100 Скачать
9 | 0
Фильмы [HD 720p, 1080p] (Хороший звук DUB, MVO) [ 6.78 GB ] Добыча / Prey [2007 BDRip 1080p] MVO bober100 Скачать
2 | 0
Классика зарубежного кино [ 1.46 GB ] Голая добыча / The Naked Prey [1965 HDTVRip многоголосый] kilih50 Скачать
1 | 0
Зарубежные сериалы [ 2.44 GB ] Добыча / Жертва / Prey / Сезон: 1 / Серии: 1-3 из 3 [2014 HDTVRip 720p] VO [R.A.I.M] lug30 Скачать
1 | 0
Гонзо [ 1.36 GB ] Сладкая Добыча 5 / Cougar's Prey 5 [2011 All Sex Oral Teen Hardcore Gonzo PornStars DVDRip Оригинал] sheker187 Скачать
1 | 0
Гонзо [ 1.36 GB ] Сладкая добыча 7 / Cougar's Prey 7 [2011 All Sex Gonzo MILF / Cougar PornStars DVDRip Оригинал] sheker187 Скачать
1 | 0

28-11-2019 20:33  

Отключить всю рекламу на сайте


    Дорогой пользователь! Огромная просьба, поблагодарите релизера, оцените раздачу и оставьте свои комментарий, если Вы скачали Добыча через торрент бесплатно! Внесите свою лепту в развитие PiratBit!
    Комментировать посты могут только пользователи прошедшие не сложную регистрацию
    Показать сообщения:    

    Добыча через торрент
    Скачать бесплатно Добыча
    Добыча скачать торрент
    Добыча смотреть онлайн
    Cкачать фильм Добыча бесплатно
    Добыча скачать торрент в хорошем качестве
    Добыча смотреть онлайн бесплатно в хорошем качестве


    Вы не можете начинать темы
    Вы не можете отвечать на сообщения
    Вы не можете редактировать свои сообщения
    Вы не можете удалять свои сообщения
    Вы не можете голосовать в опросах
    Вы не можете прикреплять файлы к сообщениям
    Вы можете скачивать файлы