Ссылка на приватное зеркало всего за 1$. Внимание количество ограничено!!!

OK

1+1

iTunes

мы

OK

1

WEB-DLRip

Джокер

Пифагор

Ведьмак / The Witcher сериал

Лицензия

ПШазам

ОК

Оно 2

iTunes

30
pack

Вам бонус

ВАЖНО

!!Акция!!

Alien_RageХит недели

RePack

Resident Evil 21

ИГРА 18+

pack

RePack

jed

!!Акция!!

Alien_Rage

RePack

fifa19

RePack

Assassins Creed: Odyssey

RePack

NEED FOR SPEED™ PAYBACK

4 сезон

9 сезон

Бесстыжие 9 сезон

Все сериалы

все сериалы на PB.wtf

RePack

FAR CRY 5
  

Солнцестояние / Midsommar (Ари Астер) [2019, ужасы, триллер, драма, UHD BDRip 2160p] DUB (rus, ukr) [iTunes] pb.wtf

Солнцестояние через торрент pb.wtf

Раздают: 2 [ 0.8 KB/s ] Качают: 2 [ 0 KB/s ]
Размер: 24.36 GB | Добавлен: 1 мес. 25 д. назад | Торрент скачан:24 раза
Скачать  

25-11-2019 16:47 Солнцестояние Скачать торрент  

Солнцестояние / Midsommar««Вековая тьма пробудится»»

Год выпуска: 2019
Страна: США, Швеция, Венгрия
Жанр: ужасы, триллер, драма
Продолжительность: 02:27:05
Перевод: Дублированный | iTunes
Субтитры: Русские (полные |FOCS|), английские
Режиссер: Ари Астер
В ролях:

Флоренс Пью (Dani), Джек Рейнор (Christian), Вильхельм Бломгрен (Pelle), Уильям Джексон Харпер (Josh), Уилл Поултер (Mark), Эллора Торчия (Connie), Арчи Мадекве (Simon), Хенрик Норлен (Ulf), Гуннель Фред (Siv), Изабель Грилл (Maja), Агнес Вестерлунд Разе (Dagny), Юлия Рагнарссон (Inga)
Описание:
День летнего солнцестояния - древний праздник, который во всех культурах окутан мистическим ореолом. В отрезанном от цивилизованного мира шведском поселении раз в 90 лет в этот день проводится уникальный обряд. Именно туда отправляется группа молодых американских антропологов. Однако вскоре после прибытия там начинает происходить нечто необъяснимое, и под светом солнца исследователям открывается настоящая тьма.
Рейтинг:

MPAA: R - Лицам до 17 лет обязательно присутствие взрослого
Качество: UHD BDRip 2160p
Формат: MKV
Видео: HEVC HDR, 21.4 Mбит/с, 3840x1922, 23.976 Кадр/с
Аудио#1: 48 kHz, AC3, 6ch, ~384.00 kbps avg /RUS/ |Дубляж, iTunes|
Аудио#2: 48 kHz, AC3, 6ch, ~384.00 kbps avg /UKR/ |Дубляж, iTunes|
Аудио#3: 48 kHz, DTS, 6ch, ~1509.00 kbps avg /ENG/ Оригинал
Навигация по главам: Есть

Complete name : E:\Movies\Midsommar.2019.2160p.UHD.BluRay.X265-SHD13.mkv
Format : Matroska
Format version : Version 4
File size : 24.4 GiB
Duration : 2 h 27 min
Overall bit rate : 23.7 Mb/s
Movie name : Midsommar.2019.2160p.UHD.BluRay.X265-SHD13
Encoded date : UTC 2019-11-20 19:18:32
Writing application : mkvmerge v38.0.0 ('The Silent Type') 64-bit
Writing library : libebml v1.3.9 + libmatroska v1.5.2
Attachments : poster.png

Video
ID : 1
Format : HEVC
Format/Info : High Efficiency Video Coding
Format profile : Main 10@L5.1@High
HDR format : SMPTE ST 2086, HDR10 compatible
Codec ID : V_MPEGH/ISO/HEVC
Duration : 2 h 27 min
Bit rate : 21.4 Mb/s
Width : 3 840 pixels
Height : 1 922 pixels
Display aspect ratio : 1.998
Frame rate mode : Constant
Frame rate : 23.976 (24000/1001) FPS
Color space : YUV
Chroma subsampling : 4:2:0 (Type 2)
Bit depth : 10 bits
Bits/(Pixel*Frame) : 0.121
Stream size : 22.0 GiB (90%)
Title : Midsommar.2019.2160p.UHD.BluRay.X265-SHD13
Writing library : x265 3.2+8-7fc1f6ef2b96:[Windows][MSVC 1900][64 bit] 10bit
Encoding settings : cpuid=1176575 / frame-threads=5 / numa-pools=36 / wpp / no-pmode / no-pme / no-psnr / no-ssim / log-level=2 / input-csp=1 / input-res=3840x1922 / interlace=0 / total-frames=211571 / level-idc=51 / high-tier=1 / uhd-bd=0 / ref=4 / no-allow-non-conformance / repeat-headers / annexb / aud / hrd / info / hash=0 / no-temporal-layers / no-open-gop / min-keyint=24 / keyint=240 / gop-lookahead=0 / bframes=4 / b-adapt=2 / b-pyramid / bframe-bias=0 / rc-lookahead=25 / lookahead-slices=4 / scenecut=40 / radl=0 / no-splice / no-intra-refresh / ctu=64 / min-cu-size=8 / rect / no-amp / max-tu-size=32 / tu-inter-depth=1 / tu-intra-depth=1 / limit-tu=0 / rdoq-level=2 / dynamic-rd=0.00 / no-ssim-rd / signhide / no-tskip / nr-intra=0 / nr-inter=0 / no-constrained-intra / no-strong-intra-smoothing / max-merge=3 / limit-refs=3 / limit-modes / me=3 / subme=3 / merange=57 / temporal-mvp / no-frame-dup / no-hme / weightp / no-weightb / no-analyze-src-pics / deblock=-3:-3 / no-sao / no-sao-non-deblock / rd=4 / selective-sao=0 / no-early-skip / rskip / no-fast-intra / no-tskip-fast / no-cu-lossless / no-b-intra / no-splitrd-skip / rdpenalty=0 / psy-rd=2.00 / psy-rdoq=1.00 / no-rd-refine / no-lossless / cbqpoffs=0 / crqpoffs=0 / rc=crf / crf=14.0 / qcomp=0.60 / qpstep=4 / stats-write=0 / stats-read=0 / vbv-maxrate=160000 / vbv-bufsize=160000 / vbv-init=0.9 / crf-max=0.0 / crf-min=0.0 / ipratio=1.40 / pbratio=1.30 / aq-mode=2 / aq-strength=1.00 / cutree / zone-count=0 / no-strict-cbr / qg-size=32 / no-rc-grain / qpmax=69 / qpmin=0 / no-const-vbv / sar=1 / overscan=0 / videoformat=5 / range=0 / colorprim=9 / transfer=16 / colormatrix=9 / chromaloc=1 / chromaloc-top=2 / chromaloc-bottom=2 / display-window=0 / master-display=G(8500,39850)B(6550,2300)R(35400,14600)WP(15635,16450)L(10000000,1) / cll=1000,0 / min-luma=0 / max-luma=1023 / log2-max-poc-lsb=8 / vui-timing-info / vui-hrd-info / slices=1 / no-opt-qp-pps / no-opt-ref-list-length-pps / no-multi-pass-opt-rps / scenecut-bias=0.05 / no-opt-cu-delta-qp / no-aq-motion / hdr / hdr-opt / no-dhdr10-opt / no-idr-recovery-sei / analysis-reuse-level=5 / scale-factor=0 / refine-intra=0 / refine-inter=0 / refine-mv=1 / refine-ctu-distortion=0 / no-limit-sao / ctu-info=0 / no-lowpass-dct / refine-analysis-type=0 / copy-pic=1 / max-ausize-factor=1.0 / no-dynamic-refine / no-single-sei / no-hevc-aq / no-svt / no-field / qp-adaptation-range=1.00
Language : Russian
Default : Yes
Forced : No
Color range : Limited
Color primaries : BT.2020
Transfer characteristics : PQ
Matrix coefficients : BT.2020 non-constant
Mastering display color pri : BT.2020
Mastering display luminance : min: 0.0001 cd/m2, max: 1000 cd/m2
Maximum Content Light Level : 1000 cd/m2

Audio #1
ID : 2
Format : AC-3
Format/Info : Audio Coding 3
Commercial name : Dolby Digital
Codec ID : A_AC3
Duration : 2 h 27 min
Bit rate mode : Constant
Bit rate : 384 kb/s
Channel(s) : 6 channels
Channel layout : L R C LFE Ls Rs
Sampling rate : 48.0 kHz
Frame rate : 31.250 FPS (1536 SPF)
Bit depth : 16 bits
Compression mode : Lossy
Stream size : 404 MiB (2%)
Title : Dub,iTunes
Language : Russian
Service kind : Complete Main
Default : Yes
Forced : No

Audio #2
ID : 3
Format : AC-3
Format/Info : Audio Coding 3
Commercial name : Dolby Digital
Codec ID : A_AC3
Duration : 2 h 27 min
Bit rate mode : Constant
Bit rate : 384 kb/s
Channel(s) : 6 channels
Channel layout : L R C LFE Ls Rs
Sampling rate : 48.0 kHz
Frame rate : 31.250 FPS (1536 SPF)
Bit depth : 16 bits
Compression mode : Lossy
Stream size : 404 MiB (2%)
Title : Dub,iTunes
Language : Ukrainian
Service kind : Complete Main
Default : No
Forced : No

Audio #3
ID : 4
Format : DTS
Format/Info : Digital Theater Systems
Codec ID : A_DTS
Duration : 2 h 27 min
Bit rate mode : Constant
Bit rate : 1 509 kb/s
Channel(s) : 6 channels
Channel layout : C L R Ls Rs LFE
Sampling rate : 48.0 kHz
Frame rate : 93.750 FPS (512 SPF)
Bit depth : 24 bits
Compression mode : Lossy
Stream size : 1.55 GiB (6%)
Language : English
Default : No
Forced : No

Text #1
ID : 5
Format : UTF-8
Codec ID : S_TEXT/UTF8
Codec ID/Info : UTF-8 Plain Text
Duration : 2 h 20 min
Bit rate : 59 b/s
Count of elements : 1343
Stream size : 61.7 KiB (0%)
Language : Russian
Default : Yes
Forced : No

Text #2
ID : 6
Format : UTF-8
Codec ID : S_TEXT/UTF8
Codec ID/Info : UTF-8 Plain Text
Duration : 1 h 37 min
Bit rate : 2 b/s
Count of elements : 48
Stream size : 1.47 KiB (0%)
Title : Forced
Language : English
Default : No
Forced : Yes

Text #3
ID : 7
Format : UTF-8
Codec ID : S_TEXT/UTF8
Codec ID/Info : UTF-8 Plain Text
Duration : 2 h 16 min
Bit rate : 40 b/s
Count of elements : 1409
Stream size : 40.1 KiB (0%)
Language : English
Default : No
Forced : No

Text #4
ID : 8
Format : UTF-8
Codec ID : S_TEXT/UTF8
Codec ID/Info : UTF-8 Plain Text
Duration : 2 h 20 min
Bit rate : 46 b/s
Count of elements : 1701
Stream size : 48.2 KiB (0%)
Title : SDH
Language : English
Default : No
Forced : No

Menu
00:00:00.000 : :Chapter 01
00:08:51.740 : :Chapter 02
00:14:53.810 : :Chapter 03
00:22:58.043 : :Chapter 04
00:28:50.270 : :Chapter 05
00:34:11.633 : :Chapter 06
00:40:18.207 : :Chapter 07
00:46:01.467 : :Chapter 08
00:52:16.050 : :Chapter 09
00:57:59.643 : :Chapter 10
01:04:09.345 : :Chapter 11
01:09:58.611 : :Chapter 12
01:16:18.032 : :Chapter 13
01:23:39.723 : :Chapter 14
01:30:26.630 : :Chapter 15
01:36:14.143 : :Chapter 16
01:41:34.130 : :Chapter 17
01:46:40.519 : :Chapter 18
01:52:49.346 : :Chapter 19
01:58:49.080 : :Chapter 20
02:04:37.762 : :Chapter 21
02:12:15.219 : :Chapter 22
02:18:45.943 : :Chapter 23
02:22:31.543 : :Chapter 24
pb.wtf



Скачать Солнцестояние через торрент https://b.radikal.ru/b28/1911/12/08640e8312e2.png Скачать фильм Солнцестояние через торрент бесплантно в хорошем качестве Описание: День летнего солнцестояния - древний праздник, который во всех культурах окутан мистическим ореолом. В отрезанном от ... 10 10 3
Торрент: Зарегистрирован [2019-11-25 16:47] · скачан: 24 раз
Статус: √ проверено
Размер: 24.36 GB
Как cкачать? Как скачать Солнцестояние через торрент | qTorrent

% Раздел Тема Автор DL S | L
Фильмы 2019-2020 [DVDrip, WEB-DLRip, HDrip] (DUB, MVO) [ 2.18 GB ] Солнцестояние / Midsommar [2019 BDRip] [Режиссерская версия] bober100 Скачать
5 | 1
Фильмы 2019-2020 [DVDrip, WEB-DLRip, HDrip] (DUB, MVO) [ 1.46 GB ] Солнцестояние / Midsommar [2019 BDRip] [Режиссерская версия] bober100 Скачать
12 | 1
Фильмы [HD 720p, 1080p] (Хороший звук DUB, MVO) [ 12.75 GB ] Солнцестояние / Midsommar [2019 BDRip 1080p] [Режиссерская версия] +2xAVO bober100 Скачать
11 | 1
Фильмы [HD 720p, 1080p] (Хороший звук DUB, MVO) [ 8.37 GB ] Солнцестояние / Midsommar [2019 BDRip 720p] [Режиссерская версия] +2xAVO bober100 Скачать
15 | 0
Фильмы 2019-2020 [DVDrip, WEB-DLRip, HDrip] (DUB, MVO) [ 2.84 GB ] Солнцестояние / Midsommar [2019 BDRip] [Режиссерская версия] bober100 Скачать
11 | 0
Фильмы с авторской озвучкой [ 2.91 GB ] Солнцестояние / Midsommar [2019 BDRip] [Режиссерская версия / Director's Cut] AVO Леонид Ильич Скачать
3 | 0
Ultra HD (UHD: 2K, 4K, 8K) — видео сверхвысокой чёткости [ 17.54 GB ] Солнцестояние / Midsommar [2019 UHD WEB-DL 2160p] DUB sheker187 Скачать
3 | 0

28-11-2019 20:33  

Отключить всю рекламу на сайте

    Дорогой пользователь! Огромная просьба, поблагодарите релизера, оцените раздачу и оставьте свои комментарий, если Вы скачали Солнцестояние через торрент бесплатно! Внесите свою лепту в развитие PiratBit!
    Комментировать посты могут только пользователи прошедшие не сложную регистрацию
    Показать сообщения:    

    Солнцестояние через торрент
    Скачать бесплатно Солнцестояние
    Солнцестояние скачать торрент
    Солнцестояние смотреть онлайн
    Cкачать фильм Солнцестояние бесплатно
    Солнцестояние скачать торрент в хорошем качестве
    Солнцестояние смотреть онлайн бесплатно в хорошем качестве


    Вы не можете начинать темы
    Вы не можете отвечать на сообщения
    Вы не можете редактировать свои сообщения
    Вы не можете удалять свои сообщения
    Вы не можете голосовать в опросах
    Вы не можете прикреплять файлы к сообщениям
    Вы можете скачивать файлы