новый адрес
Ссылка на приватное зеркало всего за 1$. Внимание количество ограничено!!!

iTunes

1+1

iTunes

мы

WEB-DL

1

iTunes

Чернобыль

iTunes

Ральф против интернета

Лицензия

ПШазам

Лицензия

Оно 2

Лицензия

30
pack

Вам бонус

ВАЖНО

!!Акция!!

Alien_RageХит недели

RePack

Resident Evil 21

ИГРА 18+

pack

RePack

jed

!!Акция!!

Alien_Rage

RePack

fifa19

RePack

Assassins Creed: Odyssey

RePack

NEED FOR SPEED™ PAYBACK

3 сезон

9 сезон

Бесстыжие 9 сезон

Все сериалы

все сериалы на PB.wtf

RePack

FAR CRY 5
Ребята, катастрофически не хватает 1900р. для оплаты серверов за Октябрь (всвязи с блокировками трафик упал в 3 раза), 1-2р., выручайте.
  

Стриптизёрши / Hustlers (Лорин Скафария) [2019, комедия, WEB-DLRip-AVC] DUB [iTunes] - ExKinoRay pb.wtf

Стриптизёрши через торрент pb.wtf

Раздают: 50 [ 143 KB/s ] Качают: 1 [ 0 KB/s ]
Размер: 1.45 GB | Добавлен: 16 д. назад | Торрент скачан:302 раза
Скачать  

26-11-2019 05:27 Стриптизёрши Скачать торрент  

Название: Стриптизёрши
Оригинальное название: Hustlers
Год выпуска: 2019
Жанр: Комедия
Режиссер: Лорин Скафария
В ролях: Констанс Ву, Дженнифер Лопес, Джулия Стайлз, Кеке Палмер, Лили Рейнхарт, Карди Би, Лиззо, Мерседес Рул, Мадлен Брюэр, Метте Таули, Трейс Лисетт, Ашер, Вэй Чинг Хо, Эмма Батис, Ванесса Аспильяга, Биг Джей Оакерсон, Фрэнк Уэйли, Девин Рэтрей, Стивен Бойер, Пол А Нилсен, Майк Келлер, Джон Глейсер

Описание: Они - яркие, сексуальные и очень амбициозные. Они - танцовщицы элитного стриптиз-клуба, клиенты которого - известные финансисты с Уолл-Стрит. Но когда банковский кризис в одночасье превращает накопления девушек в пыль, подруги по несчастью жаждут отомстить. Они разрабатывают дерзкий план как вернуть потерянные деньги, чтобы снова вести роскошную гламурную жизнь, и отплатить биржевым гениям, оставив их без гроша.

rating

Страна: США
Студия: Gloria Sanchez Productions, STX Films
Продолжительность: 01:49:40
Перевод: Дублированный | iTunes

Формат: MKV
Качество: WEB-DLRip-AVC
Видео: MPEG-4 AVC, 720x298 (2.40:1), 23.976 fps, 1506 Kbps, 0.293 bit/pixel
Аудио : 48 kHz, AC3, 5.1, 384 Kbps | RUS |
General
Unique ID : 210752371001956272702839256644329098494 (0x9E8D6E22A84122F59FB1C0F722D74CFE)
Complete name : F:\HUSTLERS.2019.WEB-DLRip.AVC.ExKinoRay.mkv
Format : Matroska
Format version : Version 2
File size : 1.45 GiB
Duration : 1 h 49 min
Overall bit rate : 1 891 kb/s
Movie name : HUSTLERS (2019) from ExKinoRay
Encoded date : UTC 2019-11-26 04:50:53
Writing application : mkvmerge v5.6.0 ('Kenya Kane') built on May 27 2012 16:44:04
Writing library : libebml v1.2.3 + libmatroska v1.3.0

Video
ID : 1
Format : AVC
Format/Info : Advanced Video Codec
Format profile : High@L4.1
Format settings, CABAC : Yes
Format settings, ReFrames : 11 frames
Codec ID : V_MPEG4/ISO/AVC
Duration : 1 h 49 min
Bit rate : 1 506 kb/s
Width : 720 pixels
Height : 298 pixels
Display aspect ratio : 2.40:1
Frame rate mode : Constant
Frame rate : 23.976 (24000/1001) FPS
Original frame rate : 23.976 (23976/1000) FPS
Color space : YUV
Chroma subsampling : 4:2:0
Bit depth : 8 bits
Scan type : Progressive
Bits/(Pixel*Frame) : 0.293
Stream size : 1.13 GiB (78%)
Title : Enigma
Writing library : x264 core 152 r2851 ba24899
Encoding settings : cabac=1 / ref=11 / deblock=1:-2:-2 / analyse=0x3:0x113 / me=umh / subme=10 / psy=1 / psy_rd=1.04:0.06 / mixed_ref=1 / me_range=32 / chroma_me=1 / trellis=2 / 8x8dct=1 / cqm=0 / deadzone=21,11 / fast_pskip=0 / chroma_qp_offset=-3 / threads=9 / lookahead_threads=2 / sliced_threads=0 / nr=0 / decimate=0 / interlaced=0 / bluray_compat=0 / constrained_intra=0 / bframes=10 / b_pyramid=2 / b_adapt=2 / b_bias=0 / direct=3 / weightb=1 / open_gop=0 / weightp=2 / keyint=240 / keyint_min=23 / scenecut=40 / intra_refresh=0 / rc=2pass / mbtree=0 / bitrate=1506 / ratetol=1.0 / qcomp=0.60 / qpmin=0 / qpmax=51 / qpstep=4 / cplxblur=20.0 / qblur=0.5 / ip_ratio=1.40 / pb_ratio=1.30 / aq=1:1.00
Default : Yes
Forced : No
Color range : Limited
Color primaries : BT.709
Transfer characteristics : BT.709
Matrix coefficients : BT.709

Audio
ID : 2
Format : AC-3
Format/Info : Audio Coding 3
Mode extension : CM (complete main)
Format settings, Endianness : Big
Codec ID : A_AC3
Duration : 1 h 49 min
Bit rate mode : Constant
Bit rate : 384 kb/s
Channel(s) : 6 channels
Channel positions : Front: L C R, Side: L R, LFE
Sampling rate : 48.0 kHz
Frame rate : 31.250 FPS (1536 spf)
Compression mode : Lossy
Stream size : 301 MiB (20%)
Title : iTunes
Language : Russian
Default : Yes
Forced : No

Menu
00:00:00.000 : en:1
00:10:58.000 : en:2
00:20:59.000 : en:3
00:30:20.000 : en:4
00:37:34.000 : en:5
00:48:45.000 : en:6
01:00:12.000 : en:7
01:11:23.000 : en:8
01:20:01.000 : en:9
01:31:58.000 : en:10
01:42:04.000 : en:11


Релиз от:

Автор релиза: pb.wtf



Скачать Стриптизёрши через торрент https://d.radikal.ru/d11/1911/7c/2115113a6dcc.png Скачать фильм Стриптизёрши через торрент бесплантно в хорошем качестве Описание: Они - яркие, сексуальные и очень амбициозные. Они - танцовщицы элитного стриптиз-клуба, клиенты которого - известные финансисты ... 8.5 10 12
Info! Золотая раздача, скачанное не засчитывается.
Торрент: Зарегистрирован [2019-11-26 05:27] · скачан: 302 раз
Статус: √ проверено
Размер: 1.45 GB
Как cкачать? Как скачать Стриптизёрши через торрент | qTorrent

28-11-2019 20:33  

Отключить всю рекламу на сайте

30-11-2019 19:16 Стриптизёрши Скачать торрент  

неясно каким боком это комедия хрень полная 0 из 10pb.wtf



01-12-2019 12:44 Стриптизёрши Скачать торрент  

фильм нормальный.тем более снятый по реальным событиям.не шедевр,но раз посмотреть можноpb.wtf



02-12-2019 03:45 Стриптизёрши Скачать торрент  

Всё думал когда наступит момент где можно смеяться видать пропустил когда моргнулpb.wtf



    Дорогой пользователь! Огромная просьба, поблагодарите релизера, оцените раздачу и оставьте свои комментарий, если Вы скачали Стриптизёрши через торрент бесплатно! Внесите свою лепту в развитие PiratBit!
    Комментировать посты могут только пользователи прошедшие не сложную регистрацию
    Показать сообщения:    

    Стриптизёрши через торрент
    Скачать бесплатно Стриптизёрши
    Стриптизёрши скачать торрент
    Стриптизёрши смотреть онлайн
    Cкачать фильм Стриптизёрши бесплатно
    Стриптизёрши скачать торрент в хорошем качестве
    Стриптизёрши смотреть онлайн бесплатно в хорошем качестве


    Вы не можете начинать темы
    Вы не можете отвечать на сообщения
    Вы не можете редактировать свои сообщения
    Вы не можете удалять свои сообщения
    Вы не можете голосовать в опросах
    Вы не можете прикреплять файлы к сообщениям
    Вы можете скачивать файлы