новый адрес
Ссылка на приватное зеркало всего за 1$. Внимание количество ограничено!!!

iTunes

1+1

iTunes

мы

WEB-DL

1

iTunes

Чернобыль

iTunes

Ральф против интернета

Лицензия

ПШазам

Лицензия

Оно 2

Лицензия

30
pack

Вам бонус

ВАЖНО

!!Акция!!

Alien_RageХит недели

RePack

Resident Evil 21

ИГРА 18+

pack

RePack

jed

!!Акция!!

Alien_Rage

RePack

fifa19

RePack

Assassins Creed: Odyssey

RePack

NEED FOR SPEED™ PAYBACK

3 сезон

9 сезон

Бесстыжие 9 сезон

Все сериалы

все сериалы на PB.wtf

RePack

FAR CRY 5
Ребята, катастрофически не хватает 1900р. для оплаты серверов за Октябрь (всвязи с блокировками трафик упал в 3 раза), 1-2р., выручайте.
  

Добыча / Prey (Франк Халфун) [2019, Ужасы, триллер, детектив, приключения, WEB-DLRip-AVC] DUB [iTunes] pb.wtf

Добыча через торрент pb.wtf

Раздают: 9 [ 0 KB/s ]
Размер: 1.33 GB | Добавлен: 16 д. назад | Торрент скачан:163 раза
Скачать  

26-11-2019 05:30 Добыча Скачать торрент  

Добыча / Prey«Don`t Close Your Eyes»
Год выпуска: 2019
Страна: США
Жанр: Ужасы, триллер, детектив, приключения
Продолжительность: 01:25:06
Перевод: Дублированный | iTunes
Субтитры: отсутствуют

Режиссер: Франк Халфун

rating

В ролях: Логан Миллер, Кристин Фросет, Джолин Андерсон, Джеррика Лай, Фодисо Динтве, Энтони Дженсен, Джоди Мортара, Вела Клафф, Joey Adanalian, Нэйтан Хили и др.

Описание: Трудного подростка отправляют на перевоспитание на безлюдный заброшенный остров по популярной «программе выживания в экстремальных условиях». Но вскоре парень понимает, что на острове он далеко не один…

Качество: WEB-DLRip-AVC
Формат: MKV

Видео: 1024x436 (2.35:1), 23,976 fps, x264 ~1 857 kbps avg, 0.173 bit/pixel
Аудио: 48 kHz, AC3 Dolby Digital, 3/2 (L,C,R,l,r) + LFE ch, ~384.00 kbps avg | RUS (iTunes)
скриншот  скриншот  скриншот  скриншот  

Общее
Уникальный идентификатор: 338474617226294831452732670924420617207 (0xFEA3D70F081221B9C9D52EB8174913F7)
Полное имя: F:\OlLanDGroup\Prey.2019.AMZN.WEB-DLRip(AVC).OlLanDGroup.mkv
Формат: Matroska
Версия формата: Version 4 / Version 2
Размер файла: 1,33 Гбайт
Продолжительность: 1 ч. 25 м.
Общий поток: 2238 Кбит/сек
Название фильма: Prey.2019 #TorpedoUK#
Дата кодирования: UTC 2019-11-26 00:52:44
Программа кодирования: mkvmerge v29.0.0 ('Like It Or Not') 64-bit
Библиотека кодирования: libebml v1.3.6 + libmatroska v1.4.9

Видео
Идентификатор: 1
Формат: AVC
Формат/Информация: Advanced Video Codec
Профиль формата: High@L4.1
Параметр CABAC формата: Да
Параметр ReFrames формата: 10 кадров
Идентификатор кодека: V_MPEG4/ISO/AVC
Продолжительность: 1 ч. 25 м.
Битрейт: 1857 Кбит/сек
Ширина: 1024 пикселя
Высота: 436 пикселей
Соотношение сторон: 2,35:1
Режим частоты кадров: Постоянный
Частота кадров: 23,976 (24000/1001) кадра/сек
Цветовое пространство: YUV
Субдискретизация насыщенности: 4:2:0
Битовая глубина: 8 бит
Тип развёртки: Прогрессивная
Бит/(Пиксели*Кадры): 0.173
Размер потока: 1,10 Гбайт (83%)
Библиотека кодирования: x264 core 146 r2538 121396c
Настройки программы: cabac=1 / ref=10 / deblock=1:-2:-3 / analyse=0x3:0x113 / me=umh / subme=11 / psy=1 / psy_rd=0.90:0.10 / mixed_ref=1 / me_range=48 / chroma_me=1 / trellis=2 / 8x8dct=1 / cqm=0 / deadzone=21,11 / fast_pskip=1 / chroma_qp_offset=-6 / threads=6 / lookahead_threads=1 / sliced_threads=0 / nr=0 / decimate=1 / interlaced=0 / bluray_compat=0 / constrained_intra=0 / bframes=11 / b_pyramid=2 / b_adapt=2 / b_bias=0 / direct=3 / weightb=1 / open_gop=0 / weightp=2 / keyint=240 / keyint_min=23 / scenecut=40 / intra_refresh=0 / rc_lookahead=40 / rc=2pass / mbtree=0 / bitrate=1857 / ratetol=1.0 / qcomp=0.60 / qpmin=0 / qpmax=69 / qpstep=4 / cplxblur=20.0 / qblur=0.5 / vbv_maxrate=50000 / vbv_bufsize=62500 / nal_hrd=none / filler=0 / ip_ratio=1.40 / pb_ratio=1.30 / aq=1:1.00
Язык: English
Default: Да
Forced: Нет

Аудио
Идентификатор: 2
Формат: AC-3
Формат/Информация: Audio Coding 3
Расширение режима: CM (complete main)
Параметр Endianness формата: Big
Идентификатор кодека: A_AC3
Продолжительность: 1 ч. 25 м.
Вид битрейта: Постоянный
Битрейт: 384 Кбит/сек
Каналы: 6 каналов
Расположение каналов: Front: L C R, Side: L R, LFE
Частота: 48,0 КГц
Частота кадров: 31,250 кадров/сек (1536 spf)
Битовая глубина: 16 бит
Метод сжатия: С потерями
Размер потока: 234 Мбайт (17%)
Default: Да
Forced: Нет

pb.wtf



Скачать Добыча через торрент https://b.radikal.ru/b43/1911/b0/1fcdb537718c.jpg Скачать фильм Добыча через торрент бесплантно в хорошем качестве Описание: Трудного подростка отправляют на перевоспитание на безлюдный заброшенный остров по популярной «программе выживания в ... 9.2 10 11
Info! Золотая раздача, скачанное не засчитывается.
Торрент: Зарегистрирован [2019-11-26 05:30] · скачан: 163 раз
Статус: √ проверено
Размер: 1.33 GB
Как cкачать? Как скачать Добыча через торрент | qTorrent

% Раздел Тема Автор DL S | L
Фильмы (WEB-DL 720p, 1080p) [ 5.14 GB ] Добыча / Prey [2019 WEB-DL 1080p] bober100 Скачать
5 | 0
Фильмы 2019 [DVDrip, WEB-DLRip, HDrip] (DUB, MVO) [ 1.45 GB ] Добыча / Prey [2019 WEB-DLRip] bober100 Скачать
11 | 0
Фильмы [HD 720p, 1080p] (Хороший звук DUB, MVO) [ 6.78 GB ] Добыча / Prey [2007 BDRip 1080p] MVO bober100 Скачать
1 | 0
Классика зарубежного кино [ 1.46 GB ] Голая добыча / The Naked Prey [1965 HDTVRip многоголосый] kilih50 Скачать
1 | 0
Зарубежные сериалы [ 2.44 GB ] Добыча / Жертва / Prey / Сезон: 1 / Серии: 1-3 из 3 [2014 HDTVRip 720p] VO [R.A.I.M] lug30 Скачать
1 | 0
Гонзо [ 1.36 GB ] Сладкая Добыча 5 / Cougar's Prey 5 [2011 All Sex Oral Teen Hardcore Gonzo PornStars DVDRip Оригинал] sheker187 Скачать
1 | 0
Гонзо [ 1.36 GB ] Сладкая добыча 7 / Cougar's Prey 7 [2011 All Sex Gonzo MILF / Cougar PornStars DVDRip Оригинал] sheker187 Скачать
1 | 0

28-11-2019 20:33  

Отключить всю рекламу на сайте

26-11-2019 19:56 Добыча Скачать торрент  

полная хрень 0 из 10pb.wtf



    Дорогой пользователь! Огромная просьба, поблагодарите релизера, оцените раздачу и оставьте свои комментарий, если Вы скачали Добыча через торрент бесплатно! Внесите свою лепту в развитие PiratBit!
    Комментировать посты могут только пользователи прошедшие не сложную регистрацию
    Показать сообщения:    

    Добыча через торрент
    Скачать бесплатно Добыча
    Добыча скачать торрент
    Добыча смотреть онлайн
    Cкачать фильм Добыча бесплатно
    Добыча скачать торрент в хорошем качестве
    Добыча смотреть онлайн бесплатно в хорошем качестве


    Вы не можете начинать темы
    Вы не можете отвечать на сообщения
    Вы не можете редактировать свои сообщения
    Вы не можете удалять свои сообщения
    Вы не можете голосовать в опросах
    Вы не можете прикреплять файлы к сообщениям
    Вы можете скачивать файлы