Лицензия

MVO

1

1 сезон

Лицензия

Лицензия

13

MVO

1 сезон

Deluxe Edition

pack

Рекомендуем

30

Repack

ВАЖНО

ВАЖНО

Ghostwire

RePack

jed

RePack

fifa19

RePack

RDR2

RePack

NEED FOR SPEED™ PAYBACK

RePack

Кинопоиск HD

 Острые козырьки 6 сезон

6 сезон

FAR CRY 6

RePack

Лицензия

MVO

1

1 сезон

1 сезон

Лицензия

  

Ночь покера / Poker Night (Грег Френсис) [2014, криминал, детектив, триллер, BDRip 1080p by msltel] 2 x DVO, 2 x AVO

Ночь покера через торрент pb.wtf

Размер: 13.17 GB | Добавлен: 2 года 9 мес. назад | Торрент скачан:44 раза
Смотреть онлайн Ночь покера | Скачать   

26-11-2019 07:55 Ночь покера Скачать торрент  

Название: Ночь покера
Оригинальное название: Poker Night
Год выпуска: 2014
Страна: Канада, США
Жанр: криминал, детектив, триллер
Продолжительность: 01:45:02
Перевод: авторский, закадровый двухголосый

Режиссер: Грег Френсис
В ролях: Бо Мирчофф, Рон Перлман, Джанкарло Эспозито, Кори Лардж, Титус Уэлливер, Холстон Сейдж, Рон Элдард, Майкл Эклунд, Киран Лардж, Локлин Манро

О фильме: Стэн Джетер — молодой полицейский, недавно ставший детективом. Любимое занятие Стэна — играть в покер со своими коллегами, полицейскими-ветеранами. Во время игры они рассказывают истории, связанные с расследованиями различных случаев убийств. Однажды Стэна похищает жестокий маньяк и держит в заключении вместе с Эми, дочерью полицейского. Стэн начинает использовать рассказы своих товарищей игры в покер, чтобы найти выход из заключения...



Качество: BDRip 1080p
Формат: MKV
Видео: MPEG-4 AVC, 12.8 Mбит/с, 1920x800, 23.976 Кадр/с
Аудио 1: русский, DTS, 1509 kbps, 6 ch, 48 kHz [авторский, Михаил Чадов с ненормативной лексикой]
Аудио 2: русский, DTS, 1509 kbps, 6 ch, 48 kHz [авторский, Михаил Яроцкий с ненормативной лексикой]
Аудио 3: русский, AC3, 384 kbps, 6 ch, 48 kHz [закадровый двухголосый, DeadSno & den904 по переводу Janetta]
Аудио 4: русский, AC3, 192 kbps, 2 ch, 48 kHz [закадровый двухголосый]
Аудио 5: английский, DTS, 1509 kbps, 6 ch, 48 kHz [оригинал]
Субтитры 1: русские (Focs)
Субтитры 2: английские
Главы/чаптеры
Общее
Уникальный идентификатор : 201272349273916032440073653271898296229 (0x976BA4FA4E90CC76A2FC6286F7EB0FA5)
Полное имя : D:\Video\Ночь покера.2014.BDRip 1080p by msltel.mkv
Формат : Matroska
Версия формата : Version 4
Размер файла : 13,2 Гбайт
Продолжительность : 1 ч. 45 м.
Общий поток : 18,0 Мбит/сек
Название фильма : Rip by msltel
Дата кодирования : UTC 2019-11-26 06:30:42
Программа кодирования : mkvmerge v8.2.0 ('World of Adventure') 64bit
Библиотека кодирования : libebml v1.3.1 + libmatroska v1.4.2

Видео
Идентификатор : 1
Формат : AVC
Формат/Информация : Advanced Video Codec
Профиль формата : [email protected]
Настройки формата : CABAC / 4 Ref Frames
Параметр CABAC формата : Да
Параметр RefFrames формата : 4 кадра
Идентификатор кодека : V_MPEG4/ISO/AVC
Продолжительность : 1 ч. 45 м.
Битрейт : 12,8 Мбит/сек
Ширина : 1920 пикселей
Высота : 800 пикселей
Соотношение сторон : 2,40:1
Режим частоты кадров : Постоянный
Частота кадров : 23,976 (24000/1001) кадра/сек
Цветовое пространство : YUV
Субдискретизация насыщенности : 4:2:0
Битовая глубина : 8 бит
Тип развёртки : Прогрессивная
Бит/(Пиксели*Кадры) : 0.349
Размер потока : 9,42 Гбайт (72%)
Библиотека кодирования : x264 core 157 r2935 545de2f
Настройки программы : cabac=1 / ref=4 / deblock=1:-2:-2 / analyse=0x3:0x113 / me=umh / subme=11 / psy=1 / psy_rd=1.00:0.15 / mixed_ref=1 / me_range=32 / chroma_me=1 / trellis=2 / 8x8dct=1 / cqm=0 / deadzone=21,11 / fast_pskip=0 / chroma_qp_offset=-3 / threads=6 / lookahead_threads=1 / sliced_threads=0 / nr=0 / decimate=1 / interlaced=0 / bluray_compat=0 / constrained_intra=0 / bframes=10 / b_pyramid=2 / b_adapt=2 / b_bias=0 / direct=1 / weightb=1 / open_gop=0 / weightp=2 / keyint=230 / keyint_min=23 / scenecut=40 / intra_refresh=0 / rc_lookahead=40 / rc=crf / mbtree=1 / crf=18.2 / qcomp=0.60 / qpmin=0 / qpmax=69 / qpstep=4 / vbv_maxrate=50000 / vbv_bufsize=62500 / crf_max=0.0 / nal_hrd=none / filler=0 / ip_ratio=1.40 / aq=1:1.00
Язык : English
Default : Да
Forced : Нет

Аудио #1
Идентификатор : 2
Формат : DTS
Формат/Информация : Digital Theater Systems
Идентификатор кодека : A_DTS
Продолжительность : 1 ч. 45 м.
Вид битрейта : Постоянный
Битрейт : 1509 Кбит/сек
Каналы : 6 каналов
ChannelLayout : C L R Ls Rs LFE
Частота : 48,0 КГц
Частота кадров : 93,750 кадра/сек (512 SPF)
Битовая глубина : 24 бит
Метод сжатия : С потерями
Размер потока : 1,11 Гбайт (8%)
Заголовок : Михаил Чадов с ненормативной лексикой
Язык : Russian
Default : Да
Forced : Нет

Аудио #2
Идентификатор : 3
Формат : DTS
Формат/Информация : Digital Theater Systems
Идентификатор кодека : A_DTS
Продолжительность : 1 ч. 45 м.
Вид битрейта : Постоянный
Битрейт : 1509 Кбит/сек
Каналы : 6 каналов
ChannelLayout : C L R Ls Rs LFE
Частота : 48,0 КГц
Частота кадров : 93,750 кадра/сек (512 SPF)
Битовая глубина : 24 бит
Метод сжатия : С потерями
Размер потока : 1,11 Гбайт (8%)
Заголовок : Михаил Яроцкий с ненормативной лексикой
Язык : Russian
Default : Нет
Forced : Нет

Аудио #3
Идентификатор : 4
Формат : AC-3
Формат/Информация : Audio Coding 3
Коммерческое название : Dolby Digital
Идентификатор кодека : A_AC3
Продолжительность : 1 ч. 45 м.
Вид битрейта : Постоянный
Битрейт : 384 Кбит/сек
Каналы : 6 каналов
ChannelLayout : L R C LFE Ls Rs
Частота : 48,0 КГц
Частота кадров : 31,250 кадров/сек (1536 SPF)
Метод сжатия : С потерями
Размер потока : 289 Мбайт (2%)
Заголовок : DeadSno & den904 по переводу Janetta
Язык : Russian
ServiceKind/String : Complete Main
Default : Нет
Forced : Нет

Аудио #4
Идентификатор : 5
Формат : AC-3
Формат/Информация : Audio Coding 3
Коммерческое название : Dolby Digital
Идентификатор кодека : A_AC3
Продолжительность : 1 ч. 45 м.
Вид битрейта : Постоянный
Битрейт : 192 Кбит/сек
Каналы : 2 канала
ChannelLayout : L R
Частота : 48,0 КГц
Частота кадров : 31,250 кадров/сек (1536 SPF)
Метод сжатия : С потерями
Размер потока : 144 Мбайт (1%)
Заголовок : DVO
Язык : Russian
ServiceKind/String : Complete Main
Default : Нет
Forced : Нет

Аудио #5
Идентификатор : 6
Формат : DTS
Формат/Информация : Digital Theater Systems
Идентификатор кодека : A_DTS
Продолжительность : 1 ч. 45 м.
Вид битрейта : Постоянный
Битрейт : 1509 Кбит/сек
Каналы : 6 каналов
ChannelLayout : C L R Ls Rs LFE
Частота : 48,0 КГц
Частота кадров : 93,750 кадра/сек (512 SPF)
Битовая глубина : 24 бит
Метод сжатия : С потерями
Размер потока : 1,11 Гбайт (8%)
Заголовок : original
Язык : English
Default : Нет
Forced : Нет

Текст #1
Идентификатор : 7
Формат : UTF-8
Идентификатор кодека : S_TEXT/UTF8
Идентификатор кодека/Информация : UTF-8 Plain Text
Продолжительность : 1 ч. 40 м.
Битрейт : 102 бит/сек
ElementCount : 1365
Размер потока : 75,6 Кбайт (0%)
Заголовок : русские Focs
Язык : Russian
Default : Нет
Forced : Нет

Текст #2
Идентификатор : 8
Формат : UTF-8
Идентификатор кодека : S_TEXT/UTF8
Идентификатор кодека/Информация : UTF-8 Plain Text
Продолжительность : 1 ч. 40 м.
Битрейт : 62 бит/сек
ElementCount : 1386
Размер потока : 45,8 Кбайт (0%)
Заголовок : английские
Язык : English
Default : Нет
Forced : Нет

Меню
00:00:00.000 : en:Chapter 01
00:04:51.666 : en:Chapter 02
00:11:21.305 : en:Chapter 03
00:19:25.455 : en:Chapter 04
00:26:36.970 : en:Chapter 05
00:30:56.521 : en:Chapter 06
00:35:29.961 : en:Chapter 07
00:42:11.737 : en:Chapter 08
00:49:15.035 : en:Chapter 09
00:55:15.020 : en:Chapter 10
01:01:01.574 : en:Chapter 11
01:08:01.994 : en:Chapter 12
01:13:17.559 : en:Chapter 13
01:18:50.308 : en:Chapter 14
01:28:30.930 : en:Chapter 15
01:36:47.718 : en:Chapter 16



Скачать Ночь покера через торрент https://c.radikal.ru/c29/1911/12/c5cf9416ae21.png Скачать, смотреть онлайн Ночь покера бесплантно в хорошем качестве О фильме: Стэн Джетер — молодой полицейский, недавно ставший детективом. Любимое занятие Стэна — играть в покер со своими коллегами, ... 10 10 1
Торрент: Зарегистрирован [2019-11-26 07:55] · скачан: 44 раз
Статус: √ проверено
Размер: 13.17 GB
Как cкачать? Как скачать Ночь покера через торрент | UTorrent

% Раздел Тема Автор DL S | L
Фильмы [HD 720p, 1080p] (Хороший звук DUB, MVO) [ 4.85 GB ] Ночь покера / Poker Night | AVO | 720p by msltel msltel Скачать
1 | 0
Фильмы 2014 [DVDrip, WEB-DLRip, HDrip] [ 3.13 GB ] Ночь покера / Poker Night | AVO | BDRip (AVC msltel Скачать
1 | 0

28-11-2019 20:33  

Отключить вcю реклaмy на сайте

    Дорогой пользователь! Огромная просьба, поблагодарите релизера, оцените раздачу и оставьте свои комментарий, если Вы скачали Ночь покера через торрент бесплатно!!
    Комментировать посты могут только пользователи прошедшие не сложную регистрацию
    Показать сообщения:    


    Ночь покера через торрент
    Скачать бесплатно Ночь покера
    Ночь покера скачать торрент
    Ночь покера смотреть онлайн
    Cкачать фильм Ночь покера бесплатно
    Ночь покера скачать торрент в хорошем качестве
    Ночь покера смотреть онлайн бесплатно в хорошем качестве
    Вы не можете начинать темы
    Вы не можете отвечать на сообщения
    Вы не можете редактировать свои сообщения
    Вы не можете удалять свои сообщения
    Вы не можете голосовать в опросах
    Вы не можете прикреплять файлы к сообщениям
    Вы можете скачивать файлы