Ссылка на приватное зеркало всего за 1$. Внимание количество ограничено!!!

OK

1+1

iTunes

мы

OK

1

WEB-DLRip

Джокер

Пифагор

Ведьмак / The Witcher сериал

Лицензия

ПШазам

ОК

Оно 2

iTunes

30
pack

Вам бонус

ВАЖНО

!!Акция!!

Alien_RageХит недели

RePack

Resident Evil 21

ИГРА 18+

pack

RePack

jed

RePack

fifa19

RePack

Assassins Creed: Odyssey

RePack

NEED FOR SPEED™ PAYBACK

4 сезон

9 сезон

Бесстыжие 9 сезон

Все сериалы

все сериалы на PB.wtf

RePack

FAR CRY 5
  

Второй шанс Кэрол / Carol's Second Act / Сезон: 1 / Серии: 1-12 из 13 (Памела Фрайман, Кэти Гарретсон, Анджела Барнс Гомес) [2019, Комедия, WEB-DL 1080p] MVO [TVShows] pb.wtf

Второй шанс Кэрол через торрент pb.wtf

Размер: 17.19 GB | Добавлен: 2 д. 13 ч. назад | Торрент скачан:1 раз
Скачать  

26-11-2019 10:47 Второй шанс Кэрол Скачать торрент  

Второй шанс Кэрол | Carol's Second Act
Год выпуска: 2019
Страна: США
Жанр: Комедия
Продолжительность: ~ 00:22:00 серия
Перевод: Профессиональный (многоголосый) | TVShows
Субтитры: английские (full)

Режиссер: Памела Фрайман, Кэти Гарретсон, Анджела Барнс Гомес

rating


В ролях: Патриша Хитон, Ито Агайере, Лукас Нефф, Жан-Люк Билодо, Сабрина Джалес, Эшли Тисдейл, Кайл МакЛоклен, Седрик Ярбро

Описание: Кэрол дожила до пятидесяти лет, вырастила двоих детей, но так и не исполнила свою заветную мечту. Однако у Кэрол всё ещё впереди — она уходит с работы, разводится с мужем и становится интерном в госпитале...

Качество: WEB-DL 1080p
Формат: MKV

Видео: 1920x1080 (16:9), 24.000 fps, MPEG-4 AVC ~9 281 kbps avg
Аудио#1: 48.0 kHz, AC3 Dolby Digital, 3/2 (L,C,R,l,r) + LFE ch, ~384 kbps | RUS / MVO
Аудио#2: 48.0 kHz, Enhanced Audio Coding 3, 3/2 (L,C,R,l,r) + LFE ch, ~640 kbps | ENG
скриншот  скриншот  скриншот  

General
Unique ID : 128765595962536312934423046072787298588 (0x60DF5A097A2E745CFD65D5831DF4691C)
Complete name : Carols.Second.Act.S01E01.1080p.TVShows.mkv
Format : Matroska
Format version : Version 4 / Version 2
File size : 1.58 GiB
Duration : 21 min 59 s
Overall bit rate : 10.3 Mb/s
Encoded date : UTC 2019-11-05 10:55:59
Writing application : mkvmerge v33.1.0 ('Primrose') 64-bit
Writing library : libebml v1.3.7 + libmatroska v1.5.0

Video
ID : 1
Format : AVC
Format/Info : Advanced Video Codec
Format profile : High@L4
Format settings, CABAC : Yes
Format settings, ReFrames : 4 frames
Codec ID : V_MPEG4/ISO/AVC
Duration : 21 min 59 s
Bit rate mode : Constant
Bit rate : 9 281 kb/s
Nominal bit rate : 10 000 kb/s
Width : 1 920 pixels
Height : 1 080 pixels
Display aspect ratio : 16:9
Frame rate mode : Constant
Frame rate : 24.000 FPS
Color space : YUV
Chroma subsampling : 4:2:0
Bit depth : 8 bits
Scan type : Progressive
Bits/(Pixel*Frame) : 0.186
Stream size : 1.43 GiB (90%)
Default : Yes
Forced : No
Color range : Limited
Color primaries : BT.709
Transfer characteristics : BT.709
Matrix coefficients : BT.709

Audio #1
ID : 2
Format : AC-3
Format/Info : Audio Coding 3
Mode extension : CM (complete main)
Format settings, Endianness : Big
Codec ID : A_AC3
Duration : 21 min 59 s
Bit rate mode : Constant
Bit rate : 384 kb/s
Channel(s) : 6 channels
Channel positions : Front: L C R, Side: L R, LFE
Sampling rate : 48.0 kHz
Frame rate : 31.250 FPS (1536 spf)
Bit depth : 16 bits
Compression mode : Lossy
Stream size : 60.4 MiB (4%)
Title : TVShows
Language : Russian
Default : Yes
Forced : Yes

Audio #2
ID : 3
Format : E-AC-3
Format/Info : Enhanced Audio Coding 3
Format settings, Endianness : Big
Codec ID : A_EAC3
Duration : 21 min 59 s
Bit rate mode : Constant
Bit rate : 640 kb/s
Channel(s) : 6 channels
Channel positions : Front: L C R, Side: L R, LFE
Sampling rate : 48.0 kHz
Frame rate : 187.500 FPS (256 spf)
Compression mode : Lossy
Stream size : 101 MiB (6%)
Title : Original
Language : English
Default : No
Forced : No

Text
ID : 4
Format : UTF-8
Codec ID : S_TEXT/UTF8
Codec ID/Info : UTF-8 Plain Text
Duration : 21 min 29 s
Bit rate : 103 b/s
Count of elements : 544
Stream size : 16.3 KiB (0%)
Title : English
Language : English
Default : No
Forced : No

При каждом добавлении создаётся новый торрент. Чтобы начать докачку новой серии, пользователям необходимо сделать следующее:
остановить скачивание,
удалить старый торрент у себя из клиента (старые серии удалять не надо),
скачать новый торрент и запустить его у себя в клиенте вместо старого, при этом указать клиенту путь в старую папку куда и должно происходить скачивание новых серий.

Ваш клиент при этом должен произвести хеширование (проверку) старой папки (если не производит сам - помогите ему сделать это), и будет докачивать только те серии которых у вас ещё нет. Старые серии при этом не удаляются, а продолжают раздаваться!
Eсли вы уже удалили старые серии, то предотвратить повторную закачку старых серий можно, отжав галочку в соответствующих местах при запуске нового торрента. По возможности, желательно не удалять старые серии как можно дольше чтобы релизёр не столько продолжал раздавать старые серии, а смог сконцентрироваться на новых.
pb.wtf



Скачать Второй шанс Кэрол через торрент http://a.radikal.ru/a08/1911/41/ef6a1d315418.jpg Скачать фильм Второй шанс Кэрол через торрент бесплантно в хорошем качестве Описание: Кэрол дожила до пятидесяти лет, вырастила двоих детей, но так и не исполнила свою заветную мечту. Однако у Кэрол всё ещё впереди ... 7 10 3
Торрент: Зарегистрирован [2020-01-21 15:16] · скачан: 1 раз
Статус: √ проверено
Размер: 17.19 GB
Как cкачать? Как скачать Второй шанс Кэрол через торрент | qTorrent

28-11-2019 20:33  

Отключить всю рекламу на сайте

    Дорогой пользователь! Огромная просьба, поблагодарите релизера, оцените раздачу и оставьте свои комментарий, если Вы скачали Второй шанс Кэрол через торрент бесплатно! Внесите свою лепту в развитие PiratBit!
    Комментировать посты могут только пользователи прошедшие не сложную регистрацию
    Показать сообщения:    

    Второй шанс Кэрол через торрент
    Скачать бесплатно Второй шанс Кэрол
    Второй шанс Кэрол скачать торрент
    Второй шанс Кэрол смотреть онлайн
    Cкачать фильм Второй шанс Кэрол бесплатно
    Второй шанс Кэрол скачать торрент в хорошем качестве
    Второй шанс Кэрол смотреть онлайн бесплатно в хорошем качестве


    Вы не можете начинать темы
    Вы не можете отвечать на сообщения
    Вы не можете редактировать свои сообщения
    Вы не можете удалять свои сообщения
    Вы не можете голосовать в опросах
    Вы не можете прикреплять файлы к сообщениям
    Вы можете скачивать файлы