Лицензия

MVO

1

1 сезон

Лицензия

Лицензия

13

MVO

1 сезон

Deluxe Edition

pack

Рекомендуем

30

Repack

ВАЖНО

ВАЖНО

Ghostwire

RePack

jed

RePack

fifa19

RePack

RDR2

RePack

NEED FOR SPEED™ PAYBACK

RePack

Кинопоиск HD

 Острые козырьки 6 сезон

6 сезон

FAR CRY 6

RePack

Лицензия

MVO

1

1 сезон

1 сезон

Лицензия

  

Король Лев 3Д / The Lion King 3D (Джон Фавро) [2019, мультфильм, мюзикл, драма, приключения, семейный, BDRip 1080p] [Anamorph SideBySide] DUB [Лицензия]

Король Лев 3Д через торрент pb.wtf

Размер: 13.45 GB | Добавлен: 2 года 10 мес. назад | Торрент скачан:119 раз
Смотреть онлайн Король Лев 3Д | Скачать   

27-11-2019 01:08 Король Лев 3Д Скачать торрент  

Король Лев 3Д
The Lion King 3D
«Король вернулся»

Год выпуска: 2019
Страна: США
Студия: Walt Disney Pictures, Fairview Entertainment
Жанр: мультфильм, мюзикл, драма, приключения, семейный
Продолжительность: 01:58:15
Перевод: Дублированный | Лицензия
Субтитры: Русские (Full, SDH), английские

Режиссер: Джон Фавро

rating

В ролях:

Джеймс Эрл Джонс (Mufasa, озвучка), Дональд Гловер (Simba, озвучка), Чиветель Эджиофор (Scar, озвучка), Джон Оливер (Zazu, озвучка), Джон Кани (Rafiki, озвучка), Элфри Вудард (Sarabi, озвучка), Джейдон Маккрэри (Young Simba, озвучка), Шахади Райт Джозеф (Young Nala, озвучка), Пенни Джонсон (Sarafina, озвучка), Кигэн-Майкл Ки (Kamari, озвучка), Эрик Андре (Azizi, озвучка), Флоренс Касумба (Shenzi, озвучка)
Описание: Действие фильма разворачивается в африканской саванне и повествует о молодом льве по имени Симба, который потерял своего отца Муфасу из-за своего злобного дяди Шрама и был изгнан из прайда в дальние края пустыни. Годы спустя он возвращается, чтобы вернуть себе трон.

Качество: BDRip 1080p
Формат: MKV

Видео: MPEG-4 AVC, 1920x1080, 15000 Kbit/s, 23.976 fps
Аудио #01: 48 kHz, AC3, 5.1, 640 Kbps | Лицензия | RUS |
Аудио #02: 48 kHz, AC3, 5.1, 640 Kbps | Оригинал | ENG |
Формат 3D: Anamorph SideBySide - Горизонтальная анаморфная стереопара.
Порядок ракурсов: левый ракурс первый
скриншот  скриншот  скриншот  скриншот  скриншот  

General
Unique ID : 102969733169691305705515370647319019683 (0x4D773FCEB29F10F3E4EE22EFBB2100A3)
Complete name : F:Video111The.Lion.King.3D.HSBS.Lic.BDRip.1080p.seleZen.mkv
Format : Matroska
Format version : Version 4
File size : 13.4 GiB
Duration : 1 h 58 min
Overall bit rate : 16.3 Mb/s
Movie name : The Lion King 2019 from селезень
Encoded date : UTC 2019-11-26 23:08:19
Writing application : mkvmerge v40.0.0 ('Old Town Road + Pony') 64-bit
Writing library : libebml v1.3.9 + libmatroska v1.5.2

Video
ID : 1
Format : AVC
Format/Info : Advanced Video Codec
Format profile : [email protected]
Format settings : CABAC / 4 Ref Frames
Format settings, CABAC : Yes
Format settings, Reference : 4 frames
Codec ID : V_MPEG4/ISO/AVC
Duration : 1 h 58 min
Bit rate : 15.0 Mb/s
Width : 1 920 pixels
Height : 1 080 pixels
Display aspect ratio : 16:9
Frame rate mode : Constant
Frame rate : 23.976 (24000/1001) FPS
Color space : YUV
Chroma subsampling : 4:2:0
Bit depth : 8 bits
Scan type : Progressive
Bits/(Pixel*Frame) : 0.302
Stream size : 12.4 GiB (92%)
Title : Encoded by seleZen
Writing library : x264 core 148 r2705kMod 3f5ed56
Encoding settings : cabac=1 / ref=4 / deblock=1:-2:-2 / analyse=0x3:0x113 / me=umh / subme=11 / psy=1 / fade_compensate=0.00 / psy_rd=1.00:0.00 / mixed_ref=1 / me_range=48 / chroma_me=1 / trellis=2 / 8x8dct=1 / cqm=0 / deadzone=21,11 / fast_pskip=0 / chroma_qp_offset=-2 / threads=24 / lookahead_threads=6 / sliced_threads=0 / nr=0 / decimate=0 / interlaced=0 / bluray_compat=0 / constrained_intra=0 / fgo=0 / bframes=10 / b_pyramid=2 / b_adapt=2 / b_bias=0 / direct=3 / weightb=1 / open_gop=0 / weightp=2 / keyint=240 / keyint_min=23 / scenecut=40 / intra_refresh=0 / rc_lookahead=50 / rc=2pass / mbtree=0 / bitrate=15000 / ratetol=1.0 / qcomp=0.60 / qpmin=0 / qpmax=51 / qpstep=4 / cplxblur=20.0 / qblur=0.5 / vbv_maxrate=50000 / vbv_bufsize=62500 / nal_hrd=none / filler=0 / ip_ratio=1.40 / pb_ratio=1.30 / aq=3:0.80
Language : English
Default : Yes
Forced : No

Audio #1
ID : 2
Format : AC-3
Format/Info : Audio Coding 3
Commercial name : Dolby Digital
Codec ID : A_AC3
Duration : 1 h 58 min
Bit rate mode : Constant
Bit rate : 640 kb/s
Channel(s) : 6 channels
Channel layout : L R C LFE Ls Rs
Sampling rate : 48.0 kHz
Frame rate : 31.250 FPS (1536 SPF)
Bit depth : 16 bits
Compression mode : Lossy
Stream size : 541 MiB (4%)
Title : Dub [License]
Language : Russian
Service kind : Complete Main
Default : Yes
Forced : Yes

Audio #2
ID : 3
Format : AC-3
Format/Info : Audio Coding 3
Commercial name : Dolby Digital
Codec ID : A_AC3
Duration : 1 h 58 min
Bit rate mode : Constant
Bit rate : 640 kb/s
Channel(s) : 6 channels
Channel layout : L R C LFE Ls Rs
Sampling rate : 48.0 kHz
Frame rate : 31.250 FPS (1536 SPF)
Bit depth : 16 bits
Compression mode : Lossy
Stream size : 541 MiB (4%)
Title : Original
Language : English
Service kind : Complete Main
Default : No
Forced : No

Text #1
ID : 4
Format : UTF-8
Codec ID : S_TEXT/UTF8
Codec ID/Info : UTF-8 Plain Text
Duration : 1 h 55 min
Bit rate : 68 b/s
Count of elements : 1371
Stream size : 58.1 KiB (0%)
Title : Full
Language : Russian
Default : No
Forced : No

Text #2
ID : 5
Format : UTF-8
Codec ID : S_TEXT/UTF8
Codec ID/Info : UTF-8 Plain Text
Duration : 1 h 47 min
Bit rate : 89 b/s
Count of elements : 1642
Stream size : 70.4 KiB (0%)
Title : SDH
Language : Russian
Default : No
Forced : No

Text #3
ID : 6
Format : UTF-8
Codec ID : S_TEXT/UTF8
Codec ID/Info : UTF-8 Plain Text
Duration : 1 h 46 min
Bit rate : 50 b/s
Count of elements : 1369
Stream size : 39.1 KiB (0%)
Title : Full
Language : English
Default : No
Forced : No

Menu
00:00:00.000 : en:"Circle Of Life/Nants' Ingonyama"
00:04:50.499 : en:"Life's Not Fair"
00:10:51.067 : en:"Everything The Light Touches"
00:17:47.692 : en:"I Just Can't Wait To Be King"
00:23:53.015 : en:Elephant Graveyard
00:30:00.132 : en:Under The Stars
00:33:05.066 : en:"Be Prepared"
00:37:09.310 : en:Stampede
00:43:42.912 : en:Scar Takes Over
00:50:47.336 : en:Timon And Pumbaa
00:55:02.716 : en:"Hakuna Matata"
00:59:48.460 : en:Scar's Kingdom
01:06:27.233 : en:"Line Of Indifference"
01:14:32.093 : en:"The Lion Sleeps Tonight"
01:18:26.410 : en:"Can You Feel The Love Tonight"
01:23:07.900 : en:"He Lives In You"
01:28:04.654 : en:"Spirit"
01:33:10.877 : en:Simba Confronts Scar
01:37:13.745 : en:Battle For Pride Rock
01:44:39.190 : en:The Rightful King
01:47:47.336 : en:End Credits/"Never Too Late"




Скачать Король Лев 3Д через торрент https://img15.lostpic.net/2019/11/07/4c9ebbede7b934e4e66fcf6839d6b5b7.jpg Скачать, смотреть онлайн Король Лев 3Д бесплантно в хорошем качестве Описание: Действие фильма разворачивается в африканской саванне и повествует о молодом льве по имени Симба, который потерял своего отца ... 10 10 4
Торрент: Зарегистрирован [2019-11-27 01:08] · скачан: 119 раз
Статус: √ проверено
Размер: 13.45 GB
Как cкачать? Как скачать Король Лев 3Д через торрент | UTorrent

% Раздел Тема Автор DL S | L
3D Мультфильмы [ 11.54 GB ] Король Лев 3Д / The Lion King 3D | Лицензия | 1080p bober100 Скачать
1 | 0
3D Мультфильмы [ 21.18 GB ] Король Лев в 3Д / The Lion King 3D | | 1080p serega768 Скачать
1 | 0

28-11-2019 20:33  

Отключить вcю реклaмy на сайте

    Дорогой пользователь! Огромная просьба, поблагодарите релизера, оцените раздачу и оставьте свои комментарий, если Вы скачали Король Лев 3Д через торрент бесплатно!!
    Комментировать посты могут только пользователи прошедшие не сложную регистрацию
    Показать сообщения:    


    Король Лев 3Д через торрент
    Скачать бесплатно Король Лев 3Д
    Король Лев 3Д скачать торрент
    Король Лев 3Д смотреть онлайн
    Cкачать фильм Король Лев 3Д бесплатно
    Король Лев 3Д скачать торрент в хорошем качестве
    Король Лев 3Д смотреть онлайн бесплатно в хорошем качестве
    Вы не можете начинать темы
    Вы не можете отвечать на сообщения
    Вы не можете редактировать свои сообщения
    Вы не можете удалять свои сообщения
    Вы не можете голосовать в опросах
    Вы не можете прикреплять файлы к сообщениям
    Вы можете скачивать файлы