Ссылка на приватное зеркало всего за 1$. Внимание количество ограничено!!!

OK

1+1

iTunes

мы

OK

1

WEB-DLRip

Джокер

Пифагор

Ведьмак / The Witcher сериал

Лицензия

ПШазам

ОК

Оно 2

iTunes

30
pack

Вам бонус

ВАЖНО

!!Акция!!

Alien_RageХит недели

RePack

Resident Evil 21

ИГРА 18+

pack

RePack

jed

!!Акция!!

Alien_Rage

RePack

fifa19

RePack

Assassins Creed: Odyssey

RePack

NEED FOR SPEED™ PAYBACK

4 сезон

9 сезон

Бесстыжие 9 сезон

Все сериалы

все сериалы на PB.wtf

RePack

FAR CRY 5
  

Ирландец / The Irishman (Мартин Скорсезе) [2019, драма, криминал, биография, WEB-DL-HEVC 1080p] DUB [Пифагор / Netflix] pb.wtf

Ирландец через торрент pb.wtf

Раздают: 19 [ 1 MB/s ]
Размер: 10.21 GB | Добавлен: 1 мес. 23 д. назад | Торрент скачан:389 раз
Скачать  

27-11-2019 09:49 Ирландец Скачать торрент  

Ирландец / The Irishman
Год выпуска: 2019
Страна: США
Студия: Fábrica de Cine, Robert Simonds Company, The, Sikelia Productions, Tribeca Productions
Жанр: драма, криминал, биография
Продолжительность: 03:29:08
Перевод: Дублированный | Пифагор / Netflix
Субтитры: Русские (Forced, full), английские

Режиссер: Мартин Скорсезе

rating


В ролях: Роберт Де Ниро, Анна Пэкуин, Аль Пачино, Джо Пеши, Алекса Палладино, Джесси Племонс, Харви Кейтель, Бобби Каннавале, Стивен Грэм, Джек Хьюстон, Доменик Ломбардоззи, Кэтрин Нардуччи,
Рэй Романо, Себастьян Манискалко, Джейк Хоффман, Пол Бен-Виктор,

Описание: История о Фрэнке Ширэне по прозвищу Ирландец, которому приписывают убийство 25 гангстеров, включая самого Джимми Хоффу.

Качество: WEB-DL-HEVC 1080p
Формат: MKV

Видео: HEVC, 1920x1080, 5570 Kbit/s, 24 fps
Аудио #01: 48 kHz, AC3, 5.1, 640 Kbps | Дублированный | RUS |
Аудио #02: 48 kHz, E-AC3+Dolby Atmos, 5.1, 768 Kbps | Оригинал | ENG |
скриншот  скриншот  скриншот  скриншот  скриншот  

General
Unique ID : 184358320064602450334327250120991263894 (0x8AB21EF404DCFCCC539372C8A21B4C96)
Complete name : F:Video111The.Irishman.2019.NF.HEVC.WEB-DL.1080p.seleZen.mkv
Format : Matroska
Format version : Version 4
File size : 10.2 GiB
Duration : 3 h 29 min
Overall bit rate : 6 981 kb/s
Movie name : The Irishman 2019 from селезень
Encoded date : UTC 2019-11-27 09:26:39
Writing application : mkvmerge v40.0.0 ('Old Town Road + Pony') 64-bit
Writing library : libebml v1.3.9 + libmatroska v1.5.2

Video
ID : 1
Format : HEVC
Format/Info : High Efficiency Video Coding
Format profile : Main 10@L4@Main
Codec ID : V_MPEGH/ISO/HEVC
Duration : 3 h 29 min
Bit rate : 5 570 kb/s
Width : 1 920 pixels
Height : 1 080 pixels
Display aspect ratio : 16:9
Frame rate mode : Constant
Frame rate : 24.000 FPS
Color space : YUV
Chroma subsampling : 4:2:0
Bit depth : 10 bits
Bits/(Pixel*Frame) : 0.112
Stream size : 8.15 GiB (80%)
Language : English
Default : Yes
Forced : No
Color range : Limited
Color primaries : BT.709
Transfer characteristics : BT.709
Matrix coefficients : BT.709

Audio #1
ID : 2
Format : AC-3
Format/Info : Audio Coding 3
Commercial name : Dolby Digital
Codec ID : A_AC3
Duration : 3 h 29 min
Bit rate mode : Constant
Bit rate : 640 kb/s
Channel(s) : 6 channels
Channel layout : L R C LFE Ls Rs
Sampling rate : 48.0 kHz
Frame rate : 31.250 FPS (1536 SPF)
Bit depth : 16 bits
Compression mode : Lossy
Stream size : 959 MiB (9%)
Title : Dub
Language : Russian
Service kind : Complete Main
Default : Yes
Forced : Yes

Audio #2
ID : 3
Format : E-AC-3 JOC
Format/Info : Enhanced AC-3 with Joint Object Coding
Commercial name : Dolby Digital Plus with Dolby Atmos
Codec ID : A_EAC3
Duration : 3 h 29 min
Bit rate mode : Constant
Bit rate : 768 kb/s
Channel(s) : 6 channels
Channel layout : L R C LFE Ls Rs
Sampling rate : 48.0 kHz
Frame rate : 31.250 FPS (1536 SPF)
Compression mode : Lossy
Stream size : 1.12 GiB (11%)
Title : Original
Language : English
Service kind : Complete Main
Default : No
Forced : No
Complexity index : 16
Number of dynamic objects : 15
Bed channel count : 1 channel
Bed channel configuration : LFE

Text #1
ID : 4
Format : UTF-8
Codec ID : S_TEXT/UTF8
Codec ID/Info : UTF-8 Plain Text
Duration : 3 h 28 min
Bit rate : 10 b/s
Count of elements : 215
Stream size : 15.9 KiB (0%)
Title : Forced
Language : Russian
Default : Yes
Forced : Yes

Text #2
ID : 5
Format : UTF-8
Codec ID : S_TEXT/UTF8
Codec ID/Info : UTF-8 Plain Text
Duration : 3 h 28 min
Bit rate : 97 b/s
Count of elements : 2973
Stream size : 149 KiB (0%)
Title : Full
Language : Russian
Default : No
Forced : No

Text #3
ID : 6
Format : UTF-8
Codec ID : S_TEXT/UTF8
Codec ID/Info : UTF-8 Plain Text
Duration : 57 s 292 ms
Bit rate : 47 b/s
Count of elements : 17
Stream size : 343 Bytes (0%)
Title : Forced
Language : English
Default : No
Forced : No

Text #4
ID : 7
Format : UTF-8
Codec ID : S_TEXT/UTF8
Codec ID/Info : UTF-8 Plain Text
Duration : 3 h 16 min
Bit rate : 69 b/s
Count of elements : 2927
Stream size : 101 KiB (0%)
Title : Full
Language : English
Default : No
Forced : No

pb.wtf



Скачать Ирландец через торрент https://img15.lostpic.net/2019/11/27/aa684c83e761370cccd6244ec50e9231.jpg Скачать фильм Ирландец через торрент бесплантно в хорошем качестве Описание: История о Фрэнке Ширэне по прозвищу Ирландец, которому приписывают убийство 25 гангстеров, включая самого Джимми ... 9 10 9
Info! Золотая раздача, скачанное не засчитывается.
Торрент: Зарегистрирован [2019-11-27 09:49] · скачан: 389 раз
Статус: √ проверено
Размер: 10.21 GB
Как cкачать? Как скачать Ирландец через торрент | qTorrent

% Раздел Тема Автор DL S | L
Фильмы 2019-2020 [DVDrip, WEB-DLRip, HDrip] (DUB, MVO) [ 3.4 GB ] Ирландец / The Irishman [2019 биография WEB-DLRip-AVC] DUB [Пифагор] - ExKinoRay Enigma2010 Скачать
1048 | 49
Ultra HD (UHD: 2K, 4K, 8K) — видео сверхвысокой чёткости [ 34.91 GB ] Ирландец / The Irishman [2019 биография WEBRip 1080p] [DVO] killermax2013 Скачать
3 | 0
Ultra HD (UHD: 2K, 4K, 8K) — видео сверхвысокой чёткости [ 27.37 GB ] Ирландец / The Irishman [2019 биография UHD WEB-DL 2160p] DVO [Кубик в Кубе] sheker187 Скачать
3 | 0
Фильмы 2019-2020 [DVDrip, WEB-DLRip, HDrip] (DUB, MVO) [ 1.46 GB ] Ирландец / The Irishman [2019 биография WEB-DLRip] DUB [Пифагор / Netflix] bober100 Скачать
100 | 2
Фильмы (WEB-DL 720p, 1080p) [ 37.72 GB ] Ирландец / The Irishman [2019 биография WEBRip 1080p] DUB [Пифагор / Netflix] +2xMVO [NewStudio Jaskier] +AVO [Ю. Сербин] bober100 Скачать
3 | 1
Фильмы 2019-2020 [DVDrip, WEB-DLRip, HDrip] (DUB, MVO) [ 4.06 GB ] Ирландец / The Irishman [2019 биография WEB-DLRip-AVC] MVO [Jaskier] AVO [Сербин] - ExKinoRay Enigma2010 Скачать
375 | 21
Ultra HD (UHD: 2K, 4K, 8K) — видео сверхвысокой чёткости [ 27.19 GB ] Ирландец / The Irishman [2019 биография UHD WEB-DL 2160p] DUB [Пифагор / Netflix] bober100 Скачать
23 | 2


Последний раз редактировалось: bober100 (2019-11-27 13:57), всего редактировалось 1 раз

28-11-2019 20:33  

Отключить всю рекламу на сайте

27-11-2019 10:04 Ирландец Скачать торрент  

Друзья! Не уходите с раздачи пожалуйста)pb.wtf



27-11-2019 14:57 Ирландец Скачать торрент  

Ирландец фильм был хорош 2010 года , Рэй Стивенсон в главных!а тут ммм такой актерский состав думал продолжение славных парней аж перекрестилсяpb.wtf



    Дорогой пользователь! Огромная просьба, поблагодарите релизера, оцените раздачу и оставьте свои комментарий, если Вы скачали Ирландец через торрент бесплатно! Внесите свою лепту в развитие PiratBit!
    Комментировать посты могут только пользователи прошедшие не сложную регистрацию
    Показать сообщения:    

    Ирландец через торрент
    Скачать бесплатно Ирландец
    Ирландец скачать торрент
    Ирландец смотреть онлайн
    Cкачать фильм Ирландец бесплатно
    Ирландец скачать торрент в хорошем качестве
    Ирландец смотреть онлайн бесплатно в хорошем качестве


    Вы не можете начинать темы
    Вы не можете отвечать на сообщения
    Вы не можете редактировать свои сообщения
    Вы не можете удалять свои сообщения
    Вы не можете голосовать в опросах
    Вы не можете прикреплять файлы к сообщениям
    Вы можете скачивать файлы