Всегда рабочее зеркало просто перед .vidak.icu напиши любое слово или цифру, Пример http://cci.vidak.icu

>

7.4

iTunes

7.4

2 сезон

9.4

1 сезон

1

7.4

2 сезон

7.2

iTunes

6.0

MVO

13

6.1

iTunes

8.3

Пиратка

30

ULTIMATE

pack

9.9

Лицензия

ВАЖНО

ИГРА 18+

pack

7.3

RePack

MK11

7.7

RePack

jed

7.8

RePack

fifa19

8.5

RePack

RDR2

RePack

NEED FOR SPEED™ PAYBACK

1 сезон

9 сезон

Бесстыжие 9 сезон

Все сериалы

все сериалы на PB.wtf

RePack

FAR CRY 5

Anonymous, добрый день, мы катастрофически не успеваем собрать деньги на оплату серверов, помогите нам пожалуйста 5,10,15р., для нас важна любая помощь . В качестве благодарности мы отключим Вам всю рекламу на сайте (укажите свой ник в строку Ваше имя)!

×
  
Magnet ссылка

Спинорог Пикассо / Picasso Trigger (Энди Сидарис) [1988 г., Боевик, приключения, триллер, BDRip-AVC, Авторский (одноголосый)] pb.wtf

Спинорог Пикассо через торрент pb.wtf

Размер: 2.67 GB | Добавлен: 2 года 1 мес. назад | Торрент скачан:4 раза
Смотреть онлайн Спинорог Пикассо | Скачать    Ребята, помогите собрать деньги на оплату серверов!!!

27-11-2019 16:00 Спинорог Пикассо Скачать торрент  

Спинорог Пикассо / Picasso Trigger
Год выпуска: 1988
Страна: США
Жанр: Боевик, приключения, триллер
Продолжительность: 01:38:28
Перевод: Авторский (одноголосый)

Режиссер: Энди Сидарис

Премьера в мире: 25 августа 1988

rating

В ролях: Стив Бонд, Дона Спейр, Хоуп Мари Карлтон, Харольд Даймонд, Джон Эпри, Роберта Васкес, Гуч Кук, Родриго Обрегон, Брюс Пенхалл, Синтия Бримхолл

Описание: Агент ЦРУ преследует наемного убийцу, у которого в качестве эмблемы — фрагмент картины Пабло Пикассо «Спинорог».

Доп. информация: Перевод: Авторский (Андрей Дольский)
Среди исполнителей ролей в фильме сразу семь бывших моделей «Плейбоя».

Качество: BDRip-AVC
Формат: MKV
Видео кодек: MPEG4
Аудио кодек: AC3
Видео: 3500 Кбит/с, 1024x576, 23.976 кадра/сек
Аудио#1: Русский (AC3, 2 ch, 192 Кбит/с, 48 КГц) - Дольский
Аудио#2: Английский (AC3, 2 ch, 192 Кбит/с, 48 КГц)
Релиз от:
Общее
Уникальный идентификатор : 176567021570271962081316119666092803293 (0x84D592477D5936458E59DF171EDE04DD)
Полное имя : F:\ExRips\Picasso.Trigger.1988.BDRip-AVC.ExKinoRay.mkv
Формат : Matroska
Версия формата : Version 2
Размер файла : 2,67 Гбайт
Продолжительность : 1 ч. 38 м.
Общий поток : 3886 Кбит/сек
Дата кодирования : UTC 2019-11-27 14:18:55
Программа кодирования : mkvmerge v7.8.0 ('River Man') 32bit built on Apr 3 2015 12:11:22
Библиотека кодирования : libebml v1.3.1 + libmatroska v1.4.2

Видео
Идентификатор : 1
Формат : AVC
Формат/Информация : Advanced Video Codec
Профиль формата : High@L4.1
Настройки формата : CABAC / 12 Ref Frames
Параметр CABAC формата : Да
Параметр RefFrames формата : 12 кадров
Идентификатор кодека : V_MPEG4/ISO/AVC
Продолжительность : 1 ч. 38 м.
Битрейт : 3500 Кбит/сек
Ширина : 1024 пикселя
Высота : 576 пикселей
Соотношение сторон : 16:9
Режим частоты кадров : Постоянный
Частота кадров : 23,976 (24000/1001) кадра/сек
Цветовое пространство : YUV
Субдискретизация насыщенности : 4:2:0
Битовая глубина : 8 бит
Тип развёртки : Прогрессивная
Бит/(Пиксели*Кадры) : 0.247
Размер потока : 2,36 Гбайт (88%)
Библиотека кодирования : x264 core 152 r2851 ba24899
Настройки программы : cabac=1 / ref=12 / deblock=1:-3:-2 / analyse=0x3:0x113 / me=umh / subme=10 / psy=1 / psy_rd=1.00:0.10 / mixed_ref=1 / me_range=32 / chroma_me=1 / trellis=2 / 8x8dct=1 / cqm=0 / deadzone=21,11 / fast_pskip=0 / chroma_qp_offset=-3 / threads=6 / lookahead_threads=1 / sliced_threads=0 / nr=0 / decimate=0 / interlaced=0 / bluray_compat=0 / constrained_intra=0 / bframes=16 / b_pyramid=2 / b_adapt=2 / b_bias=0 / direct=3 / weightb=1 / open_gop=0 / weightp=2 / keyint=240 / keyint_min=23 / scenecut=40 / intra_refresh=0 / rc=2pass / mbtree=0 / bitrate=3500 / ratetol=1.0 / qcomp=0.60 / qpmin=0 / qpmax=69 / qpstep=4 / cplxblur=20.0 / qblur=0.5 / ip_ratio=1.40 / pb_ratio=1.30 / aq=3:1.00
Язык : English
Default : Да
Forced : Нет
Цветовой диапазон : Limited
Основные цвета : BT.709
Характеристики трансфера : BT.709
Коэффициенты матрицы : BT.709

Аудио #1
Идентификатор : 2
Формат : AC-3
Формат/Информация : Audio Coding 3
Коммерческое название : Dolby Digital
Идентификатор кодека : A_AC3
Продолжительность : 1 ч. 38 м.
Вид битрейта : Постоянный
Битрейт : 192 Кбит/сек
Каналы : 2 канала
Channel layout : L R
Частота : 48,0 КГц
Частота кадров : 31,250 кадров/сек (1536 SPF)
Битовая глубина : 16 бит
Метод сжатия : С потерями
Размер потока : 135 Мбайт (5%)
Заголовок : Дольский
Язык : Russian
ServiceKind/String : Complete Main
Default : Да
Forced : Нет

Аудио #2
Идентификатор : 3
Формат : AC-3
Формат/Информация : Audio Coding 3
Коммерческое название : Dolby Digital
Идентификатор кодека : A_AC3
Продолжительность : 1 ч. 38 м.
Вид битрейта : Постоянный
Битрейт : 192 Кбит/сек
Каналы : 2 канала
Channel layout : L R
Частота : 48,0 КГц
Частота кадров : 31,250 кадров/сек (1536 SPF)
Битовая глубина : 16 бит
Метод сжатия : С потерями
Размер потока : 135 Мбайт (5%)
Язык : English
ServiceKind/String : Complete Main
Default : Нет
Forced : Нет

Меню
00:00:00.000 : en:Chapter 01
00:11:46.622 : en:Chapter 02
00:21:02.469 : en:Chapter 03
00:29:17.964 : en:Chapter 04
00:39:14.852 : en:Chapter 05
00:48:53.639 : en:Chapter 06
00:59:06.960 : en:Chapter 07
01:04:53.806 : en:Chapter 08
01:11:09.640 : en:Chapter 09
01:19:20.088 : en:Chapter 10
01:27:46.970 : en:Chapter 11
01:35:32.101 : en:Chapter 12

pb.wtf



Скачать Спинорог Пикассо через торрент https://img15.lostpic.net/2019/10/24/6735d7831c358f4d167d0a6fa6e6d650.jpg Скачать, смотреть онлайн Спинорог Пикассо бесплантно в хорошем качестве Описание: Агент ЦРУ преследует наемного убийцу, у которого в качестве эмблемы — фрагмент картины Пабло Пикассо «Спинорог».Доп. информация: ... 5 10 1
Info! Золотая раздача, скачанное не засчитывается.
Торрент: Зарегистрирован [2019-11-27 16:00] · скачан: 4 раз
Статус: √ проверено
Размер: 2.67 GB
Как cкачать? Как скачать Спинорог Пикассо через торрент | UTorrent

28-11-2019 20:33  

Отключить всю рекламу на сайте

    Дорогой пользователь! Огромная просьба, поблагодарите релизера, оцените раздачу и оставьте свои комментарий, если Вы скачали Спинорог Пикассо через торрент бесплатно!
    Комментировать посты могут только пользователи прошедшие не сложную регистрацию
    Показать сообщения:    

    Спинорог Пикассо через торрент
    Скачать бесплатно Спинорог Пикассо
    Спинорог Пикассо скачать торрент
    Спинорог Пикассо смотреть онлайн
    Cкачать фильм Спинорог Пикассо бесплатно
    Спинорог Пикассо скачать торрент в хорошем качестве
    Спинорог Пикассо смотреть онлайн бесплатно в хорошем качестве


    Вы не можете начинать темы
    Вы не можете отвечать на сообщения
    Вы не можете редактировать свои сообщения
    Вы не можете удалять свои сообщения
    Вы не можете голосовать в опросах
    Вы не можете прикреплять файлы к сообщениям
    Вы можете скачивать файлы