Ссылка на приватное зеркало всего за 1$. Внимание количество ограничено!!!

OK

1+1

iTunes

мы

OK

1

WEB-DLRip

Джокер

Пифагор

Ведьмак / The Witcher сериал

Лицензия

ПШазам

ОК

Оно 2

iTunes

30
pack

Вам бонус

ВАЖНО

!!Акция!!

Alien_RageХит недели

RePack

Resident Evil 21

ИГРА 18+

pack

RePack

jed

!!Акция!!

Alien_Rage

RePack

fifa19

RePack

Assassins Creed: Odyssey

RePack

NEED FOR SPEED™ PAYBACK

4 сезон

9 сезон

Бесстыжие 9 сезон

Все сериалы

все сериалы на PB.wtf

RePack

FAR CRY 5
  

Кухня. Война за отель / Сезон: 1 / Серии: 1-13 из 13 (Евгений Шелякин) [2019, Комедия, WEB-DL 1080p] pb.wtf

Кухня. Война за отель через торрент pb.wtf

Раздают: 6 [ 77 KB/s ] Качают: 5 [ 0 KB/s ]
Размер: 11.67 GB | Добавлен: 1 мес. 2 д. назад | Торрент скачан:90 раз
Скачать  

27-11-2019 16:33 Кухня. Война за отель Скачать торрент  

Кухня. Война за отель
Год выпуска: 2019
Страна: Россия
Жанр: Комедия
Продолжительность: ~ 00:25:00
Субтитры: отсутствуют

Режиссер: Евгений Шелякин



В ролях: Дмитрий Нагиев, Дмитрий Назаров, Елена Ксенофонтова, Григорий Сиятвинда, Валерия Федорович, Михаил Башкатов, Виктор Хориняк, Ольга Кузьмина, Василиса Немцова, Ирина Темичева, Мария Ульянова, Борис Дергачёв, Гурам Баблишвили, Александр Ляпин, Алексей Гришин, Алина Алексеева (II), Владислав Ценёв, Николай Лунин

Описание: Потерпев фиаско в гостиничном бизнесе и попрощавшись с отелем Eleon, Элеонора уединяется в Тоскане. Всё меняется, когда виновный в её банкротстве экс-жених Дмитрий Нагиев приступает к строительству грандиозного комплекса «Курортище» в Сочи. Чтобы отомстить шоумену за все обиды, Элеонора покупает гостиницу, на которую положил глаз Нагиев, нанимает бывшего мужа, шеф-повара Виктора Баринова, их дочку Катю и управляющего Михаила Джековича.

Качество: WEB-DL 1080p
Формат: MKV

Видео: MPEG4 AVC Video, H264, 16:9, 1920x1080, 25 fps, ~4900 kbps, 0.094 bit/pixel
Аудио: AC3 Dolby Digital, 48.0 kHz, 2/0 (L,R) ch, 192 kbps
скриншот  скриншот  скриншот  скриншот  скриншот  

General
Unique ID : 191984909508065023394911667255935148178 (0x906EF2D80D8AD02788B1972820A6A092)
Complete name : D:\Kuhnya.voina.za.otel.S01.2019.WEB-DL.(1080p).Getty\Kuhnya.voina.za.otel.s01e01-02.2019.WEB-DL.(1080p).Getty.mkv
Format : Matroska
Format version : Version 2
File size : 1.80 GiB
Duration : 49 min 51 s
Overall bit rate mode : Variable
Overall bit rate : 5 177 kb/s
Encoded date : UTC 2019-11-27 16:18:05
Writing application : mkvmerge v4.0.0 ('The Stars were mine') сборка от Jun 6 2010 16:18:42
Writing library : libebml v1.0.0 + libmatroska v1.0.0

Video
ID : 1
Format : AVC
Format/Info : Advanced Video Codec
Format profile : High@L4.1
Format settings : CABAC / 5 Ref Frames
Format settings, CABAC : Yes
Format settings, ReFrames : 5 frames
Codec ID : V_MPEG4/ISO/AVC
Duration : 49 min 51 s
Bit rate mode : Variable
Bit rate : 4 882 kb/s
Maximum bit rate : 40.0 Mb/s
Width : 1 920 pixels
Height : 1 080 pixels
Display aspect ratio : 16:9
Frame rate mode : Constant
Frame rate : 25.000 FPS
Color space : YUV
Chroma subsampling : 4:2:0
Bit depth : 8 bits
Scan type : Progressive
Bits/(Pixel*Frame) : 0.094
Stream size : 1.70 GiB (94%)
Language : Russian
Default : Yes
Forced : No
Color range : Limited
Color primaries : BT.709
Transfer characteristics : BT.709
Matrix coefficients : BT.709

Audio
ID : 2
Format : AC-3
Format/Info : Audio Coding 3
Codec ID : A_AC3
Duration : 49 min 51 s
Bit rate mode : Constant
Bit rate : 192 kb/s
Channel(s) : 2 channels
Channel positions : Front: L R
Sampling rate : 48.0 kHz
Frame rate : 31.250 FPS (1536 SPF)
Bit depth : 16 bits
Compression mode : Lossy
Stream size : 68.5 MiB (4%)
Language : Russian
Service kind : Complete Main
Default : Yes
Forced : No

Когда раздача ведётся путём добавления новых серий, при каждом добавлении создётся новый торрент. Чтобы начать докачку новой серии, пользователям необходимо сделать следующее:
(1) остановить скачивание,
(2) удалить старый торрент у себя из клиента (старые серии удалять не надо),
(3) скачать новый торрент и запустить его у себя в клиенте вместо старого, при этом указать клиенту путь в старую папку, куда и должно происходить скачивание новых серий.
Ваш клиент при этом должен произвести хеширование (проверку) старой папки (если не производит сам - помогите ему сделать это), и будет докачивать только те серии, которых у вас ещё нет. Старые серии при этом не удаляются, а продолжают раздаваться!
Eсли вы уже удалили старые серии, то предотвратить повторную закачку старых серий можно, отжав галочку в соответсвующих местах при запуске нового торрента. По возможности, желательно не удалять старые серии как можно дольше, чтобы релизёр не столько продолжал раздавать старые серии, а смог сконцентрироваться на новых.
pb.wtf



Скачать Кухня. Война за отель через торрент https://img15.lostpic.net/2019/11/27/c67093e018f01193411fae114b258da9.jpg Скачать фильм Кухня. Война за отель через торрент бесплантно в хорошем качестве Описание: Потерпев фиаско в гостиничном бизнесе и попрощавшись с отелем Eleon, Элеонора уединяется в Тоскане. Всё меняется, когда виновный ... 10 10 12
Info! Золотая раздача, скачанное не засчитывается.
Торрент: Зарегистрирован [2019-12-15 18:26] · скачан: 90 раз
Статус: √ проверено
Размер: 11.67 GB
Как cкачать? Как скачать Кухня. Война за отель через торрент | qTorrent

% Раздел Тема Автор DL S | L
Наши сериалы [ 4.93 GB ] Кухня. Война за отель / Сезон: 1 / Серии: 1-13 из 13 [2019 WEB-DLRip-AVC] bober100 Скачать
1 | 1
Наши сериалы [ 7.18 GB ] Кухня. Война за отель / Сезон: 1 / Серии: 1-13 из 13 [2019 WEB-DL 720p] bober100 Скачать
3 | 1
Наши сериалы [ 3.87 GB ] Кухня. Война за отель / Сезон: 1 / Серии: 1-13 из 13 [2019 WEB-DLRip] bober100 Скачать
5 | 1

28-11-2019 20:33  

Отключить всю рекламу на сайте

    Дорогой пользователь! Огромная просьба, поблагодарите релизера, оцените раздачу и оставьте свои комментарий, если Вы скачали Кухня. Война за отель через торрент бесплатно! Внесите свою лепту в развитие PiratBit!
    Комментировать посты могут только пользователи прошедшие не сложную регистрацию
    Показать сообщения:    

    Кухня. Война за отель через торрент
    Скачать бесплатно Кухня. Война за отель
    Кухня. Война за отель скачать торрент
    Кухня. Война за отель смотреть онлайн
    Cкачать фильм Кухня. Война за отель бесплатно
    Кухня. Война за отель скачать торрент в хорошем качестве
    Кухня. Война за отель смотреть онлайн бесплатно в хорошем качестве


    Вы не можете начинать темы
    Вы не можете отвечать на сообщения
    Вы не можете редактировать свои сообщения
    Вы не можете удалять свои сообщения
    Вы не можете голосовать в опросах
    Вы не можете прикреплять файлы к сообщениям
    Вы можете скачивать файлы