Ссылка на приватное зеркало нашего сайта всего за 1$. Внимание количество ограничено!!!

2 сезон

iTunes

1 сезон

1

iTunes

iTunes

iTunes

1 сезон

RePack

30

ИГРА 18+

pack

ВАЖНО

!!Акция!!

Alien_RageХит недели

RePack

MK11
pack

Забери бонус

RePack

jed

!!Акция!!

Alien_Rage

RePack

fifa19

RePack

Assassins Creed: Odyssey

RePack

NEED FOR SPEED™ PAYBACK

4 сезон

9 сезон

Бесстыжие 9 сезон

Все сериалы

все сериалы на PB.wtf

RePack

FAR CRY 5
  

Остров обречённых / Сезон: 1 / Серии: 1-10 из 10 (Фуад Шабанов) [2019, Боевик, детектив, приключения, WEB-DL 1080p] pb.wtf

Остров обречённых через торрент pb.wtf

Раздают: 1 [ 0 KB/s ]
Размер: 20.96 GB | Добавлен: 10 мес. назад | Торрент скачан:68 раз
Скачать  

28-11-2019 05:23 Остров обречённых Скачать торрент  

Остров обречённых Год выпуска: 2019
Страна: Россия
Жанр: Боевик, детектив, приключения
Продолжительность: ~ 00:48:00 серия
Субтитры: отсутствуют

Режиссер: Фуад Шабанов



В ролях: Олег Тактаров, Константин Соловьёв, Дмитрий Пчела, Владимир Гусев (II), Екатерина Данилова (III), Сергей Генкин, Алёна Лисовская, Юрий Иванов, Марта Дроздова, Олег Чевелёв, Дмитрий Соколов, Анжела Кольцова, Сергей Шарифуллин, Вячеслав Кулаков, Светлана Чуйкина, Михаил Асанкин, Илья Коврижных, Юля Арутюнова

Описание: Остров обречённых – так называют местные старожилы свой район, затерянный среди болот, рек и озёр, где-то на северо-западе России. Здесь однажды утром рыбаки обнаружили тело девушки в одежде 16 века. Для раскрытия преступления из столицы приезжают два сыщика из разных ведомств – МВД и ФСБ. Герои сталкиваются с неповторимым колоритом российской глубинки, с её таинственными легендами и преданиями. И прежде чем они доберутся до разгадки, им предстоит распутать клубок других, не менее загадочных преступлений.

Качество: WEB-DL 1080p
Формат: MKV

Видео: 1920х1080 (16:9), 25 fps, AVC MPEG-4 (x264), High@L4.0 ~ 6000 kbps avg, 0.116 bit/pixel
Аудио: 48 kHz, AC3, 2/0 (L,R) ch, ~192 kbps
скриншот  скриншот  скриншот  скриншот  

Общее
Уникальный идентификатор : 176855944615672353827893910877259022005 (0x850D3749030431BB9A1E5EB49E8DBEB5)
Полное имя : C:\Ostrov.obrechonnyh.2018.WEB-DL.(1080p).ExKinoRay\Ostrov.obrechonnyh.Е01.2018.WEB-DL.(1080p).ExKinoRay.mkv
Формат : Matroska
Версия формата : Version 4
Размер файла : 2,09 Гбайт
Продолжительность : 48 м. 40 с.
Режим общего битрейта : Постоянный
Общий поток : 6152 Кбит/сек
Дата кодирования : UTC 2019-11-25 19:13:43
Программа кодирования : mkvmerge v6.9.1 ('Blue Panther') 64bit built on Apr 18 2014 18:23:38
Библиотека кодирования : libebml v1.3.0 + libmatroska v1.4.1

Видео
Идентификатор : 1
Формат : AVC
Формат/Информация : Advanced Video Codec
Профиль формата : High@L4.1
Настройки формата : 2 Ref Frames
Параметр CABAC формата : Нет
Параметр RefFrames формата : 2 кадра
Идентификатор кодека : V_MPEG4/ISO/AVC
Продолжительность : 48 м. 40 с.
Вид битрейта : Постоянный
Битрейт : 6000 Кбит/сек
Ширина : 1920 пикселей
Высота : 1080 пикселей
Соотношение сторон : 16:9
Режим частоты кадров : Постоянный
Частота кадров : 25,000 кадров/сек
Стандарт вещания : PAL
Цветовое пространство : YUV
Субдискретизация насыщенности : 4:2:0
Битовая глубина : 8 бит
Тип развёртки : Прогрессивная
Бит/(Пиксели*Кадры) : 0.116
Размер потока : 1,98 Гбайт (95%)
Default : Да
Forced : Нет
Цветовой диапазон : Limited
Основные цвета : BT.709
Характеристики трансфера : BT.709
Коэффициенты матрицы : BT.709

Аудио
Идентификатор : 2
Формат : AC-3
Формат/Информация : Audio Coding 3
Коммерческое название : Dolby Digital
Идентификатор кодека : A_AC3
Продолжительность : 48 м. 40 с.
Вид битрейта : Постоянный
Битрейт : 192 Кбит/сек
Каналы : 2 канала
ChannelLayout : L R
Частота : 48,0 КГц
Частота кадров : 31,250 кадров/сек (1536 SPF)
Метод сжатия : С потерями
Размер потока : 66,8 Мбайт (3%)
Язык : Russian
ServiceKind/String : Complete Main
Default : Да
Forced : Нет
Показать скриншоты

Раздача ведётся путём добавления новых серий, при каждом добавлении создаётся новый торрент. Чтобы начать докачку новой серии, пользователям необходимо сделать следующее:

- Остановить скачивание.
- Удалить старый торрент у себя из клиента (старые серии удалять не надо).
- Скачать новый торрент и запустить его у себя в клиенте вместо старого, при этом указать клиенту путь в старую папку куда и должно происходить скачивание новых серий.

Ваш клиент при этом должен произвести хеширование (проверку) старой папки (если не производит сам - помогите ему сделать это), и будет докачивать только те серии которых у вас ещё нет. Старые серии при этом не удаляются, а продолжают раздаваться!
Если вы уже удалили старые серии, то предотвратить повторную закачку старых серий можно, отжав галочку в соответствующих местах при запуске нового торрента. По возможности, желательно не удалять старые серии как можно дольше, чтобы релизер не столько продолжал раздавать старые серии, а смог сконцентрироваться на новых.
pb.wtf



Скачать Остров обречённых через торрент https://img16.lostpic.net/2019/11/25/510c025e47afc8fff285b043c694e871.jpg Скачать фильм Остров обречённых через торрент бесплантно в хорошем качестве Описание: Остров обречённых – так называют местные старожилы свой район, затерянный среди болот, рек и озёр, где-то на северо-западе ... 9.7 10 6
Торрент: Зарегистрирован [2019-12-01 06:51] · скачан: 68 раз
Статус: √ проверено
Размер: 20.96 GB
Как cкачать? Как скачать Остров обречённых через торрент | qTorrent

% Раздел Тема Автор DL S | L
Наши сериалы [ 12.58 GB ] Остров обречённых / Сезон: 1 / Серии: 1-10 из 10 [2019 WEB-DL 720p] bober100 Скачать
1 | 0
Зарубежные сериалы [ 7.47 GB ] Остров обречённых / Сезон: 1 / Серии: 1-10 из 10 [2019 WEBRip-AVC] bober100 Скачать
1 | 0
Наши сериалы [ 5.86 GB ] Остров обречённых / Сезон: 1 / Серии: 1-10 из 10 [2019 SATRip] bober100 Скачать
2 | 0
Наши сериалы [ 6.14 GB ] Остров обречённых / Сезон: 1 / Серии: 1-10 из 10 [2019 WEBRip] bober100 Скачать
1 | 0

28-11-2019 20:33  

Отключить всю рекламу на сайте

    Дорогой пользователь! Огромная просьба, поблагодарите релизера, оцените раздачу и оставьте свои комментарий, если Вы скачали Остров обречённых через торрент бесплатно! Внесите свою лепту в развитие PiratBit!
    Комментировать посты могут только пользователи прошедшие не сложную регистрацию
    Показать сообщения:    

    Остров обречённых через торрент
    Скачать бесплатно Остров обречённых
    Остров обречённых скачать торрент
    Остров обречённых смотреть онлайн
    Cкачать фильм Остров обречённых бесплатно
    Остров обречённых скачать торрент в хорошем качестве
    Остров обречённых смотреть онлайн бесплатно в хорошем качестве


    Вы не можете начинать темы
    Вы не можете отвечать на сообщения
    Вы не можете редактировать свои сообщения
    Вы не можете удалять свои сообщения
    Вы не можете голосовать в опросах
    Вы не можете прикреплять файлы к сообщениям
    Вы можете скачивать файлы