Ссылка на приватное зеркало нашего сайта всего за 1$. Внимание количество ограничено!!!

2 сезон

iTunes

1 сезон

1

2 сезон

2 сезон

iTunes

1 сезон

RePack

30

Новинка

ВАЖНО

ИГРА 18+

pack

RePack

MK11
pack

Забери бонус

RePack

jed

!!Акция!!

Alien_Rage

RePack

fifa19

RePack

Assassins Creed: Odyssey

RePack

NEED FOR SPEED™ PAYBACK

4 сезон

9 сезон

Бесстыжие 9 сезон

Все сериалы

все сериалы на PB.wtf

RePack

FAR CRY 5
  

Иные / Freaks (Зак Липовски, Адам Б. Стейн) [2018, Фантастика, триллер, драма, WEB-DL 1080p] DUB [iTunes] pb.wtf

Иные через торрент pb.wtf

Размер: 3.63 GB | Добавлен: 1 год назад | Торрент скачан:644 раза
Скачать  

28-11-2019 10:55 Иные Скачать торрент  

Иные / Freaks«Они выглядят как мы. Но они — не мы»
Год выпуска: 2018
Страна: Канада, США
Жанр: Фантастика, триллер, драма
Продолжительность: 01:44:45
Перевод: Дублированный | iTunes
Субтитры: отсутствуют

Режиссер: Зак Липовски, Адам Б. Стейн

rating

В ролях: Эмиль Хирш, Брюс Дерн, Грейс Пак, Аманда Крю, Лекси Колкер, Ава Телек, Мишель Харрисон, Мэтти Финочио, Алекс Паунович, АрДжей Фезерстонхо

Описание: В уединенном домике одного из районов Лос-Анджелеса живут маленькая девочка и ее заботливый отец. Вполне нормальная семья, если не считать, что девочка одним взглядом может поднять в воздух тяжеленный шкаф, а у отца всегда наготове снятый с предохранителя пистолет. Каждый день, уходя из дома, папа запирает дочь, и категорически запрещает открывать дверь. Ей нельзя ни с кем разговаривать и не позволено даже подходить к окну. Единственное развлечение девочки: тайком наблюдать из-за занавесок за фургончиком мороженщика, который целыми днями торчит возле их дома. Играет музыка и таинственной голос призывает её отпереть дверь и полакомиться сладеньким. Малышке так хочется мороженого, но ведь папа сказал, что это смертельно опасно: никто не должен её видеть!

И вот однажды девочка нарушает запрет, и начинаются самые невероятные события, которые только можно представить.

Качество: WEB-DL 1080p
Формат: MKV

Видео: 1920x818 (2,35:1), 24 fps, MPEG-4 AVC ~ 4580 Kbps avg, 0.122 bit/pixel
Аудио: AC3, 48 kHz, 6 ch, ~384.00 kbps avg | русский | iTunes
скриншот  скриншот  скриншот  скриншот  скриншот  

Общее
Уникальный идентификатор : 310992165221864849591101413362543323224 (0xE9F6E98F93B68E5CB22A7390225B6858)
Полное имя : G:FREAKS (2018) WEB-DL 1080p.mkv
Формат : Matroska
Версия формата : Version 4 / Version 2
Размер файла : 3,63 Гбайт
Продолжительность : 1 ч. 44 м.
Общий поток : 4966 Кбит/сек
Название фильма : Иные / Freaks (2018)
Дата кодирования : UTC 2019-11-28 10:07:41
Программа кодирования : mkvmerge v38.0.0 ('The Silent Type') 64-bit
Библиотека кодирования : libebml v1.3.9 + libmatroska v1.5.2
Attachments : 200.jpg

Видео
Идентификатор : 1
Формат : AVC
Формат/Информация : Advanced Video Codec
Профиль формата : High@L4
Настройки формата : CABAC / 5 Ref Frames
Параметр CABAC формата : Да
Параметр RefFrames формата : 5 кадров
Идентификатор кодека : V_MPEG4/ISO/AVC
Продолжительность : 1 ч. 44 м.
Битрейт : 4580 Кбит/сек
Ширина : 1920 пикселей
Высота : 818 пикселей
Соотношение сторон : 2,35:1
Режим частоты кадров : Постоянный
Частота кадров : 24,000 кадра/сек
Цветовое пространство : YUV
Субдискретизация насыщенности : 4:2:0
Битовая глубина : 8 бит
Тип развёртки : Прогрессивная
Бит/(Пиксели*Кадры) : 0.122
Размер потока : 3,35 Гбайт (92%)
Заголовок : FREAKS (2018) WEB-DL 1080p
Язык : English
Default : Да
Forced : Нет
Цветовой диапазон : Limited
Основные цвета : BT.709
Характеристики трансфера : BT.709
Коэффициенты матрицы : BT.709

Аудио
Идентификатор : 2
Формат : AC-3
Формат/Информация : Audio Coding 3
Идентификатор кодека : A_AC3
Продолжительность : 1 ч. 44 м.
Вид битрейта : Постоянный
Битрейт : 384 Кбит/сек
Каналы : 6 каналов
Расположение каналов : Front: L C R, Side: L R, LFE
Частота : 48,0 КГц
Частота кадров : 31,250 кадров/сек (1536 SPF)
Битовая глубина : 16 бит
Метод сжатия : С потерями
Задержка видео : -42 мс.
Размер потока : 288 Мбайт (8%)
Заголовок : iTunes | FREAKS (2018) WEB-DL 1080p-KAZTORKA
Язык : Russian
Default : Да
Forced : Да

Меню
00:00:00.000 : en:Глава 1
00:08:21.000 : en:Глава 2
00:16:57.375 : en:Глава 3
00:25:37.333 : en:Глава 4
00:34:05.291 : en:Глава 5
00:42:37.374 : en:Глава 6
00:50:42.707 : en:Глава 7
00:59:11.998 : en:Глава 8
01:08:18.248 : en:Глава 9
01:16:54.080 : en:Глава 10
01:25:16.287 : en:Глава 11
01:33:28.744 : en:Глава 12

pb.wtf



Скачать Иные через торрент https://i111.fastpic.ru/big/2019/1128/b1/36ab2884147240b144bca7b7ae8cfcb1.jpg Скачать фильм Иные через торрент бесплантно в хорошем качестве Описание: В уединенном домике одного из районов Лос-Анджелеса живут маленькая девочка и ее заботливый отец. Вполне нормальная семья, если ... 10 10 18
Торрент: Зарегистрирован [2019-11-28 10:55] · скачан: 644 раз
Статус: √ проверено
Размер: 3.63 GB
Как cкачать? Как скачать Иные через торрент | qTorrent

% Раздел Тема Автор DL S | L
Фильмы 2018 [DVDrip, WEB-DLRip, HDrip] (DUB, MVO) [ 2.54 GB ] Иные / Freaks [2018 BDRip-AVC] DUB [] - ExKinoRay Mr. Grab Скачать
5 | 0
Фильмы (Blu-ray, BD-Remux, HDDVD) [ 15.27 GB ] Иные / Freaks [2018 BDRemux 1080p] DUB [] - ExKinoRay Mr. Grab Скачать
1 | 0
Фильмы 2018 [DVDrip, WEB-DLRip, HDrip] (DUB, MVO) [ 1.41 GB ] Иные / Freaks [2018 BDRip] bober100 Скачать
1 | 0
Фильмы 2018 [DVDrip, WEB-DLRip, HDrip] (DUB, MVO) [ 1.46 GB ] Иные / Freaks [2018 BDRip] - [] Twi7ter Скачать
27 | 4
Фильмы [HD 720p, 1080p] (Хороший звук DUB, MVO) [ 4.17 GB ] Иные / Freaks [2018 BDRip 720p] bober100 Скачать
3 | 0
Фильмы 2018 [DVDrip, WEB-DLRip, HDrip] (DUB, MVO) [ 1.62 GB ] Иные / Freaks [2018 BDRip-AVC] bober100 Скачать
1 | 0
Фильмы 2018 [DVDrip, WEB-DLRip, HDrip] (DUB, MVO) [ 704 MB ] Иные / Freaks [2018 HDRip ""] coc900 Скачать
1 | 0

28-11-2019 20:33  

Отключить всю рекламу на сайте

06-12-2019 11:13 Иные Скачать торрент  

Жуткая шляпа.pb.wtf



    Дорогой пользователь! Огромная просьба, поблагодарите релизера, оцените раздачу и оставьте свои комментарий, если Вы скачали Иные через торрент бесплатно! Внесите свою лепту в развитие PiratBit!
    Комментировать посты могут только пользователи прошедшие не сложную регистрацию
    Показать сообщения:    

    Иные через торрент
    Скачать бесплатно Иные
    Иные скачать торрент
    Иные смотреть онлайн
    Cкачать фильм Иные бесплатно
    Иные скачать торрент в хорошем качестве
    Иные смотреть онлайн бесплатно в хорошем качестве


    Вы не можете начинать темы
    Вы не можете отвечать на сообщения
    Вы не можете редактировать свои сообщения
    Вы не можете удалять свои сообщения
    Вы не можете голосовать в опросах
    Вы не можете прикреплять файлы к сообщениям
    Вы можете скачивать файлы