Ссылка на приватное зеркало нашего сайта всего за 1$. Внимание количество ограничено!!!

2 сезон

iTunes

1 сезон

1

2 сезон

2 сезон

iTunes

1 сезон

RePack

30

Новинка

ВАЖНО

ИГРА 18+

pack

RePack

MK11
pack

Забери бонус

RePack

jed

!!Акция!!

Alien_Rage

RePack

fifa19

RePack

Assassins Creed: Odyssey

RePack

NEED FOR SPEED™ PAYBACK

4 сезон

9 сезон

Бесстыжие 9 сезон

Все сериалы

все сериалы на PB.wtf

RePack

FAR CRY 5
  

Однажды в… Голливуде / Once Upon a Time ... in Hollywood (Квентин Тарантино) [2019, драма, комедия, BD Remux 1080p] DUB (rus, ukr) [Лицензия] pb.wtf

Однажды в… Голливуде через торрент pb.wtf

Раздают: 4 [ 11 KB/s ] Качают: 1 [ 0 KB/s ]
Размер: 31.77 GB | Добавлен: 11 мес. назад | Торрент скачан:137 раз
Скачать  

28-11-2019 17:44 Однажды в… Голливуде Скачать торрент  

Однажды в… Голливуде / Once Upon a Time ... in Hollywood
Год выпуска: 2019
Страна: Великобритания, США, Китай
Студия: Bona Film Group, Heyday Films, Sony Pictures Entertainment
Жанр: драма, комедия
Продолжительность: 02:41:29
Перевод: Дублированный | Лицензия
Субтитры: Русские (Forced, full), украинские (Full), английские

Режиссер: Квентин Тарантино

rating

В ролях:

Леонардо ДиКаприо (Rick Dalton), Брэд Питт (Cliff Booth), Марго Робби (Sharon Tate), Эмиль Хирш (Jay Sebring), Маргарет Куэлли (Pussycat), Тимоти Олифант (James Stacy), Джулия Баттерз (Trudi Fraser), Остин Батлер (Tex Watson), Дакота Фаннинг (Squeaky Fromme), Брюс Дерн (George Spahn), Майк Мо (Bruce Lee), Люк Перри (Wayne Maunder)
Описание: Фильм повествует о череде событий, произошедших в Голливуде в 1969 году, на закате его «золотого века». По сюжету, известный ТВ актер Рик Далтон и его дублер Клифф Бут пытаются найти свое место в стремительно меняющемся мире киноиндустрии.

Качество: BD Remux 1080p
Формат: MKV

Видео: MPEG-4 AVC, 1920x1080, 23.9 Mbit/s, 23.976 fps
Аудио #01: 48 kHz, AC3, 5.1, 640 Kbps | Дублированный | RUS |
Аудио #02: 48 kHz, AC3, 2.0, 160 Kbps | Дублированный | UKR |
Аудио #03: 48 kHz, DTS-HD MA, 5.1, 3440 Kbps | Оригинал | ENG |
скриншот  скриншот  скриншот  скриншот  скриншот  

General
Unique ID : 200879784202295768039311076384159602441 (0x97200A0680B706735D7E206AB7149709)
Complete name : F:Video111Once.Upon.a.Time.in.Hollywood.2019.Lic.BDREMUX.1080p.seleZen.mkv
Format : Matroska
Format version : Version 4
File size : 31.8 GiB
Duration : 2 h 41 min
Overall bit rate mode : Variable
Overall bit rate : 28.2 Mb/s
Movie name : Once Upon a Time in Hollywood 2019 from селезень
Encoded date : UTC 2019-11-29 13:03:49
Writing application : mkvmerge v40.0.0 ('Old Town Road + Pony') 64-bit
Writing library : libebml v1.3.9 + libmatroska v1.5.2

Video
ID : 1
Format : AVC
Format/Info : Advanced Video Codec
Format profile : High@L4.1
Format settings : CABAC / 2 Ref Frames
Format settings, CABAC : Yes
Format settings, Reference : 2 frames
Format settings, GOP : M=1, N=10
Codec ID : V_MPEG4/ISO/AVC
Duration : 2 h 41 min
Bit rate mode : Variable
Bit rate : 23.9 Mb/s
Width : 1 920 pixels
Height : 1 080 pixels
Display aspect ratio : 16:9
Frame rate mode : Constant
Frame rate : 23.976 (24000/1001) FPS
Color space : YUV
Chroma subsampling : 4:2:0
Bit depth : 8 bits
Scan type : Progressive
Bits/(Pixel*Frame) : 0.481
Stream size : 27.0 GiB (85%)
Language : English
Default : Yes
Forced : No

Audio #1
ID : 2
Format : AC-3
Format/Info : Audio Coding 3
Commercial name : Dolby Digital
Codec ID : A_AC3
Duration : 2 h 41 min
Bit rate mode : Constant
Bit rate : 640 kb/s
Channel(s) : 6 channels
Channel layout : L R C LFE Ls Rs
Sampling rate : 48.0 kHz
Frame rate : 31.250 FPS (1536 SPF)
Bit depth : 16 bits
Compression mode : Lossy
Stream size : 739 MiB (2%)
Title : Dub [License]
Language : Russian
Service kind : Complete Main
Default : Yes
Forced : Yes

Audio #2
ID : 3
Format : AC-3
Format/Info : Audio Coding 3
Commercial name : Dolby Digital
Codec ID : A_AC3
Duration : 2 h 41 min
Bit rate mode : Constant
Bit rate : 160 kb/s
Channel(s) : 2 channels
Channel layout : L R
Sampling rate : 48.0 kHz
Frame rate : 31.250 FPS (1536 SPF)
Bit depth : 16 bits
Compression mode : Lossy
Stream size : 185 MiB (1%)
Title : Dub
Language : Ukrainian
Service kind : Complete Main
Default : No
Forced : No

Audio #3
ID : 4
Format : DTS XLL
Format/Info : Digital Theater Systems
Commercial name : DTS-HD Master Audio
Codec ID : A_DTS
Duration : 2 h 41 min
Bit rate mode : Variable
Bit rate : 3 440 kb/s
Channel(s) : 6 channels
Channel layout : C L R Ls Rs LFE
Sampling rate : 48.0 kHz
Frame rate : 93.750 FPS (512 SPF)
Bit depth : 24 bits
Compression mode : Lossless
Stream size : 3.88 GiB (12%)
Title : Original
Language : English
Default : No
Forced : No

Text #1
ID : 5
Format : UTF-8
Codec ID : S_TEXT/UTF8
Codec ID/Info : UTF-8 Plain Text
Duration : 2 h 36 min
Bit rate : 0 b/s
Count of elements : 16
Stream size : 646 Bytes (0%)
Title : Forced
Language : Russian
Default : Yes
Forced : Yes

Text #2
ID : 6
Format : UTF-8
Codec ID : S_TEXT/UTF8
Codec ID/Info : UTF-8 Plain Text
Duration : 2 h 40 min
Bit rate : 75 b/s
Count of elements : 1766
Stream size : 88.7 KiB (0%)
Title : Full
Language : Russian
Default : No
Forced : No

Text #3
ID : 7
Format : UTF-8
Codec ID : S_TEXT/UTF8
Codec ID/Info : UTF-8 Plain Text
Duration : 2 h 40 min
Bit rate : 82 b/s
Count of elements : 1817
Stream size : 97.1 KiB (0%)
Title : Full
Language : Ukrainian
Default : No
Forced : No

Text #4
ID : 8
Format : UTF-8
Codec ID : S_TEXT/UTF8
Codec ID/Info : UTF-8 Plain Text
Duration : 2 h 40 min
Bit rate : 61 b/s
Count of elements : 2543
Stream size : 72.8 KiB (0%)
Title : SDH
Language : English
Default : No
Forced : No

Menu
00:00:00.000 : en:00:00:00.000
00:04:49.414 : en:00:04:49.414
00:13:45.199 : en:00:13:45.199
00:18:29.150 : en:00:18:29.150
00:22:00.319 : en:00:22:00.319
00:25:59.349 : en:00:25:59.349
00:28:41.094 : en:00:28:41.094
00:33:45.106 : en:00:33:45.106
00:40:19.334 : en:00:40:19.334
00:49:59.455 : en:00:49:59.455
00:51:48.689 : en:00:51:48.689
00:59:52.255 : en:00:59:52.255
01:02:32.874 : en:01:02:32.874
01:04:28.615 : en:01:04:28.615
01:09:16.736 : en:01:09:16.736
01:17:40.781 : en:01:17:40.781
01:20:25.779 : en:01:20:25.779
01:26:28.433 : en:01:26:28.433
01:32:54.444 : en:01:32:54.444
01:39:58.492 : en:01:39:58.492
01:47:55.219 : en:01:47:55.219
01:53:00.232 : en:01:53:00.232
01:58:09.541 : en:01:58:09.541
02:06:23.993 : en:02:06:23.993
02:11:22.958 : en:02:11:22.958
02:15:50.100 : en:02:15:50.100
02:21:30.190 : en:02:21:30.190
02:29:50.732 : en:02:29:50.732
02:36:28.254 : en:02:36:28.254
02:38:51.230 : en:02:38:51.230

pb.wtf



Скачать Однажды в… Голливуде через торрент https://img16.lostpic.net/2019/11/24/24ca4e214b94527381320420308949d6.jpg Скачать фильм Однажды в… Голливуде через торрент бесплантно в хорошем качестве Описание: Фильм повествует о череде событий, произошедших в Голливуде в 1969 году, на закате его «золотого века». По сюжету, известный ТВ ... 10 10 6
Торрент: Зарегистрирован [2019-11-29 13:14] · скачан: 137 раз
Статус: √ проверено
Размер: 31.77 GB
Как cкачать? Как скачать Однажды в… Голливуде через торрент | qTorrent

% Раздел Тема Автор DL S | L
Фильмы 2019-2020 [DVDrip, WEB-DLRip, HDrip] (DUB, MVO) [ 3.43 GB ] Однажды в… Голливуде / Once Upon a Time ... in Hollywood [2019 BDRip-AVC] DUB [] AVO [Дольский] - ExKinoRay Enigma2010 Скачать
54 | 2
Фильмы [HD 720p, 1080p] (Хороший звук DUB, MVO) [ 7.48 GB ] Однажды в… Голливуде / Once Upon a Time ... in Hollywood [2019 BDRip 720p AVO] от ExKinoRay morfyi Скачать
6 | 0
Фильмы 2019-2020 [DVDrip, WEB-DLRip, HDrip] (DUB, MVO) [ 1.46 GB ] Однажды в… Голливуде / Once Upon a Time ... in Hollywood [2019 BDRip] - [] Twi7ter Скачать
42 | 0
Официальные cаундтреки к зарубежным фильмам [ 418 MB ] OST - Однажды в… Голливуде / Once Upon a Time...in Hollywood 2019 / FLAC / lossless / Soundtrack bober100 Скачать
3 | 0
Официальные cаундтреки к зарубежным фильмам [ 171 MB ] OST - Однажды в… Голливуде / Once Upon a Time...in Hollywood 2019 / MP3 / 320 kbps / Soundtrack bober100 Скачать
2 | 0
Фильмы 2019-2020 [DVDrip, WEB-DLRip, HDrip] (DUB, MVO) [ 2.18 GB ] Однажды в… Голливуде / Once Upon a Time ... in Hollywood [2019 BDRip] - [] Twi7ter Скачать
285 | 5
Фильмы с авторской озвучкой [ 2.18 GB ] Однажды в… Голливуде / Once Upon a Time ... in Hollywood [2019 HDRip] 2x[AVO] killermax2013 Скачать
1 | 0

28-11-2019 20:33  

Отключить всю рекламу на сайте

    Дорогой пользователь! Огромная просьба, поблагодарите релизера, оцените раздачу и оставьте свои комментарий, если Вы скачали Однажды в… Голливуде через торрент бесплатно! Внесите свою лепту в развитие PiratBit!
    Комментировать посты могут только пользователи прошедшие не сложную регистрацию
    Показать сообщения:    

    Однажды в… Голливуде через торрент
    Скачать бесплатно Однажды в… Голливуде
    Однажды в… Голливуде скачать торрент
    Однажды в… Голливуде смотреть онлайн
    Cкачать фильм Однажды в… Голливуде бесплатно
    Однажды в… Голливуде скачать торрент в хорошем качестве
    Однажды в… Голливуде смотреть онлайн бесплатно в хорошем качестве


    Вы не можете начинать темы
    Вы не можете отвечать на сообщения
    Вы не можете редактировать свои сообщения
    Вы не можете удалять свои сообщения
    Вы не можете голосовать в опросах
    Вы не можете прикреплять файлы к сообщениям
    Вы можете скачивать файлы