новый адрес
Ссылка на приватное зеркало всего за 1$. Внимание количество ограничено!!!

iTunes

1+1

iTunes

мы

WEB-DL

1

iTunes

Чернобыль

iTunes

Ральф против интернета

Лицензия

ПШазам

Лицензия

Оно 2

Лицензия

30
pack

Вам бонус

ВАЖНО

!!Акция!!

Alien_RageХит недели

RePack

Resident Evil 21

ИГРА 18+

pack

RePack

jed

!!Акция!!

Alien_Rage

RePack

fifa19

RePack

Assassins Creed: Odyssey

RePack

NEED FOR SPEED™ PAYBACK

3 сезон

9 сезон

Бесстыжие 9 сезон

Все сериалы

все сериалы на PB.wtf

RePack

FAR CRY 5
Ребята, катастрофически не хватает 1900р. для оплаты серверов за Октябрь (всвязи с блокировками трафик упал в 3 раза), 1-2р., выручайте.
  

Я иду искать / Ready or Not (Мэттью Беттинелли, Тайлер Джиллетт) [2019, ужасы, триллер, комедия, детектив, BDRip-AVC] DUB [iTunes, Ukr] - ExKinoRay pb.wtf

Я иду искать через торрент pb.wtf

Раздают: 386 [ 3 MB/s ] Качают: 19 [ 4 MB/s ]
Размер: 1.53 GB | Добавлен: 8 д. назад | Торрент скачан:377 раз
Скачать  

28-11-2019 22:03 Я иду искать Скачать торрент  

Информация о фильме
Название: Я иду искать
Оригинальное название: Ready or Not
Год выпуска: 2019
Жанр: Ужасы, триллер, комедия, детектив
Режиссер: Мэттью Беттинелли, Тайлер Джиллетт
В ролях: Самара Уивинг, Адам Броди, Марк О`Брайэн, Генри Черни, Энди МакДауэлл, Мелани Скрофано, Кристиан Бруун, Никки Гуаданьи, Элиз Левеске, Джон Ралстон, Лиам Макдональд, Этан Таварес, Хеннеки Талбот, Даниэла Барбоза, Чейз Черчилль, Эндрю Энтони, Элана Дункельман

Описание: Юная невеста - теперь часть семьи своего новоиспеченного мужа, богатого, но эксцентричного рода, чтящего вековые традиции. Но кто бы мог подумать, что знакомство с родителями супруга превратится в смертельную игру, в которой все борются не на жизнь, а на смерть.

rating

Страна: Канада, США
Студия: Mythology Entertainment, Vinson Films
Продолжительность: 01:35:22
Перевод: Дублированный | iTunes

Формат: MKV
Качество: BDRip-AVC
Видео: MPEG-4 AVC, 1024x428 (2.40:1), 23.976 fps, 1750 Kbps, 0.167 bit/pixel
Аудио #01: 48 kHz, AC3, 5.1, 384 Kbps | iTunes | RUS |
Аудио #02: 48 kHz, AC3, 2.0, 160 Kbps | iTunes | UKR |
Субтитры: Русские (Forced, full), украинские (Full), английские
General
Unique ID : 253684262838532844709423041790560437716 (0xBED9CFD391F0DFAAAA6E6EA476F405D4)
Complete name : F:\Ready.or.Not.2019.BDRip.AVC.ExKinoRay.mkv
Format : Matroska
Format version : Version 2
File size : 1.53 GiB
Duration : 1 h 35 min
Overall bit rate : 2 297 kb/s
Movie name : Ready or Not 2019 from ExKinoRay
Encoded date : UTC 2019-11-28 21:32:28
Writing application : mkvmerge v5.6.0 ('Kenya Kane') built on May 27 2012 16:44:04
Writing library : libebml v1.2.3 + libmatroska v1.3.0

Video
ID : 1
Format : AVC
Format/Info : Advanced Video Codec
Format profile : High@L4.1
Format settings, CABAC : Yes
Format settings, ReFrames : 12 frames
Codec ID : V_MPEG4/ISO/AVC
Duration : 1 h 35 min
Bit rate : 1 750 kb/s
Width : 1 024 pixels
Height : 428 pixels
Display aspect ratio : 2.40:1
Frame rate mode : Constant
Frame rate : 23.976 (23976/1000) FPS
Color space : YUV
Chroma subsampling : 4:2:0
Bit depth : 8 bits
Scan type : Progressive
Bits/(Pixel*Frame) : 0.167
Stream size : 1.14 GiB (74%)
Title : Enigma
Writing library : x264 core 152 r2851 ba24899
Encoding settings : cabac=1 / ref=12 / deblock=1:-2:-2 / analyse=0x3:0x113 / me=umh / subme=10 / psy=1 / psy_rd=1.02:0.06 / mixed_ref=1 / me_range=32 / chroma_me=1 / trellis=2 / 8x8dct=1 / cqm=0 / deadzone=21,11 / fast_pskip=0 / chroma_qp_offset=-3 / threads=12 / lookahead_threads=3 / sliced_threads=0 / nr=0 / decimate=0 / interlaced=0 / bluray_compat=0 / constrained_intra=0 / bframes=12 / b_pyramid=2 / b_adapt=2 / b_bias=0 / direct=3 / weightb=1 / open_gop=0 / weightp=2 / keyint=240 / keyint_min=23 / scenecut=40 / intra_refresh=0 / rc=2pass / mbtree=0 / bitrate=1750 / ratetol=1.0 / qcomp=0.60 / qpmin=0 / qpmax=51 / qpstep=4 / cplxblur=20.0 / qblur=0.5 / ip_ratio=1.40 / pb_ratio=1.30 / aq=2:0.90
Language : English
Default : Yes
Forced : No
Color range : Limited
Color primaries : BT.709
Transfer characteristics : BT.709
Matrix coefficients : BT.709

Audio #1
ID : 2
Format : AC-3
Format/Info : Audio Coding 3
Mode extension : CM (complete main)
Format settings, Endianness : Big
Codec ID : A_AC3
Duration : 1 h 35 min
Bit rate mode : Constant
Bit rate : 384 kb/s
Channel(s) : 6 channels
Channel positions : Front: L C R, Side: L R, LFE
Sampling rate : 48.0 kHz
Frame rate : 31.250 FPS (1536 spf)
Compression mode : Lossy
Stream size : 262 MiB (17%)
Title : iTunes
Language : Russian
Default : Yes
Forced : No

Audio #2
ID : 3
Format : AC-3
Format/Info : Audio Coding 3
Mode extension : CM (complete main)
Format settings, Endianness : Big
Codec ID : A_AC3
Duration : 1 h 35 min
Bit rate mode : Constant
Bit rate : 160 kb/s
Channel(s) : 2 channels
Channel positions : Front: L R
Sampling rate : 48.0 kHz
Frame rate : 31.250 FPS (1536 spf)
Compression mode : Lossy
Stream size : 109 MiB (7%)
Language : Ukrainian
Default : No
Forced : No

Text #1
ID : 4
Format : UTF-8
Codec ID : S_TEXT/UTF8
Codec ID/Info : UTF-8 Plain Text
Title : Forced
Language : Russian
Default : Yes
Forced : No

Text #2
ID : 5
Format : UTF-8
Codec ID : S_TEXT/UTF8
Codec ID/Info : UTF-8 Plain Text
Title : Full
Language : Russian
Default : No
Forced : No

Text #3
ID : 6
Format : UTF-8
Codec ID : S_TEXT/UTF8
Codec ID/Info : UTF-8 Plain Text
Language : Ukrainian
Default : No
Forced : No

Text #4
ID : 7
Format : UTF-8
Codec ID : S_TEXT/UTF8
Codec ID/Info : UTF-8 Plain Text
Language : English
Default : No
Forced : No

Menu
00:00:00.000 : en:Chapter 01
00:03:11.983 : en:Chapter 02
00:06:49.534 : en:Chapter 03
00:09:27.441 : en:Chapter 04
00:12:26.787 : en:Chapter 05
00:16:24.149 : en:Chapter 06
00:21:58.275 : en:Chapter 07
00:25:21.311 : en:Chapter 08
00:28:00.261 : en:Chapter 09
00:31:21.921 : en:Chapter 10
00:34:46.459 : en:Chapter 11
00:36:08.624 : en:Chapter 12
00:38:23.676 : en:Chapter 13
00:41:55.930 : en:Chapter 14
00:45:40.362 : en:Chapter 15
00:48:02.713 : en:Chapter 16
00:51:50.440 : en:Chapter 17
00:54:05.367 : en:Chapter 18
00:57:04.963 : en:Chapter 19
00:59:52.714 : en:Chapter 20
01:01:37.902 : en:Chapter 21
01:04:01.671 : en:Chapter 22
01:07:31.505 : en:Chapter 23
01:09:25.494 : en:Chapter 24
01:11:48.053 : en:Chapter 25
01:15:59.346 : en:Chapter 26
01:18:34.584 : en:Chapter 27
01:21:39.644 : en:Chapter 28
01:24:07.292 : en:Chapter 29
01:27:48.012 : en:Chapter 30
01:29:22.315 : en:Chapter 31
01:30:48.860 : en:Chapter 32


Релиз от:

Автор релиза: pb.wtf



Скачать Я иду искать через торрент https://img15.lostpic.net/2019/11/28/28d38b9528a16793cf043fcf4393f3bf.jpg Скачать фильм Я иду искать через торрент бесплантно в хорошем качестве Описание: Юная невеста - теперь часть семьи своего новоиспеченного мужа, богатого, но эксцентричного рода, чтящего вековые традиции. Но ... 10 10 14
Info! Золотая раздача, скачанное не засчитывается.
Торрент: Зарегистрирован [2019-11-28 22:03] · скачан: 377 раз
Статус: √ проверено
Размер: 1.53 GB
Как cкачать? Как скачать Я иду искать через торрент | qTorrent

28-11-2019 20:33  

Отключить всю рекламу на сайте

29-11-2019 00:22 Я иду искать Скачать торрент  

хорошее кино.смотрел еще в экранке.интересный фильм.pb.wtf



    Дорогой пользователь! Огромная просьба, поблагодарите релизера, оцените раздачу и оставьте свои комментарий, если Вы скачали Я иду искать через торрент бесплатно! Внесите свою лепту в развитие PiratBit!
    Комментировать посты могут только пользователи прошедшие не сложную регистрацию
    Показать сообщения:    

    Я иду искать через торрент
    Скачать бесплатно Я иду искать
    Я иду искать скачать торрент
    Я иду искать смотреть онлайн
    Cкачать фильм Я иду искать бесплатно
    Я иду искать скачать торрент в хорошем качестве
    Я иду искать смотреть онлайн бесплатно в хорошем качестве


    Вы не можете начинать темы
    Вы не можете отвечать на сообщения
    Вы не можете редактировать свои сообщения
    Вы не можете удалять свои сообщения
    Вы не можете голосовать в опросах
    Вы не можете прикреплять файлы к сообщениям
    Вы можете скачивать файлы