новый адрес
Ссылка на приватное зеркало всего за 1$. Внимание количество ограничено!!!

iTunes

1+1

iTunes

мы

WEB-DL

1

iTunes

Чернобыль

iTunes

Ральф против интернета

Лицензия

ПШазам

Лицензия

Оно 2

Лицензия

30
pack

Вам бонус

ВАЖНО

!!Акция!!

Alien_RageХит недели

RePack

Resident Evil 21

ИГРА 18+

pack

RePack

jed

!!Акция!!

Alien_Rage

RePack

fifa19

RePack

Assassins Creed: Odyssey

RePack

NEED FOR SPEED™ PAYBACK

3 сезон

9 сезон

Бесстыжие 9 сезон

Все сериалы

все сериалы на PB.wtf

RePack

FAR CRY 5
Ребята, катастрофически не хватает 1900р. для оплаты серверов за Октябрь (всвязи с блокировками трафик упал в 3 раза), 1-2р., выручайте.
  

Ирландец / The Irishman (Мартин Скорсезе) [2019, драма, криминал, биография, WEB-DLRip-AVC] DUB [Пифагор] - ExKinoRay pb.wtf

Ирландец через торрент pb.wtf

Раздают: 789 [ 12 MB/s ] Качают: 55 [ 13 MB/s ]
Размер: 3.4 GB | Добавлен: 13 д. назад | Торрент скачан:1155 раз
Скачать  

29-11-2019 01:15 Ирландец Скачать торрент  

Название: Ирландец
Оригинальное название: The Irishman
Год выпуска: 2019
Жанр: Драма, криминал, биография
Режиссер: Мартин Скорсезе
В ролях: Роберт Де Ниро, Анна Пакуин, Аль Пачино, Джо Пеши, Алекса Палладино, Джесси Племонс, Харви Кейтель, Бобби Каннавейл, Стивен Грэм, Джек Хьюстон

Описание: Фрэнк Ширан, носивший кличку Ирландец был, на первый взгляд, обычным американским обывателем. Примерный семьянин с женой и четырьмя детьми, бывший ветеран войны, любитель умеренной выпивки. Но под внешней маской скрывался человек, родившийся в Ирландии в семье с суровым отцом, помешанным на боксе. Человек, который провел на войне столько дней, что разучился нормально спать и нормально жить. Его тяга к спиртному была прямым следствием посттравматического синдрома, от которого бывшего солдата не могли спасти никакие семейные радости. Именно этот человек на старости лет сделает признание в том, что убил свыше 30 важных представителей мафии.

rating

Страна: США
Студия: Fabrica de Cine, STX Entertainment, Sikelia Productions, Tribeca Productions
Продолжительность: 03:29:26
Перевод: Дублированный | Пифагор

Формат: MKV
Качество: BDRip-AVC
Видео: MPEG-4 AVC, 1024x552 (1.85:1), 24.000 fps, 1875 Kbps, 0.138 bit/pixel
Аудио : 48 kHz, AC3, 5.1, 448 Kbps | Пифагор | RUS |
Субтитры: Русские (Forced, full), английские
General
Unique ID : 241071135165071980207046262108547362949 (0xB55C9C9E8B29F891889D416807E2B085)
Complete name : F:\The.Irishman.2019.NF.WEB-DL.AVC.ExKinoRay.mkv
Format : Matroska
Format version : Version 2
File size : 3.40 GiB
Duration : 3 h 29 min
Overall bit rate : 2 324 kb/s
Movie name : The Irishman 2019 from ExKinoRay
Encoded date : UTC 2019-11-29 00:14:24
Writing application : mkvmerge v5.6.0 ('Kenya Kane') built on May 27 2012 16:44:04
Writing library : libebml v1.2.3 + libmatroska v1.3.0

Video
ID : 1
Format : AVC
Format/Info : Advanced Video Codec
Format profile : High@L4.1
Format settings, CABAC : Yes
Format settings, ReFrames : 11 frames
Codec ID : V_MPEG4/ISO/AVC
Duration : 3 h 29 min
Bit rate : 1 875 kb/s
Width : 1 024 pixels
Height : 552 pixels
Display aspect ratio : 1.85:1
Frame rate mode : Constant
Frame rate : 24.000 FPS
Color space : YUV
Chroma subsampling : 4:2:0
Bit depth : 8 bits
Scan type : Progressive
Bits/(Pixel*Frame) : 0.138
Stream size : 2.68 GiB (79%)
Title : Enigma
Writing library : x264 core 152 r2851 ba24899
Encoding settings : cabac=1 / ref=11 / deblock=1:-2:-2 / analyse=0x3:0x113 / me=umh / subme=10 / psy=1 / psy_rd=1.00:0.05 / mixed_ref=1 / me_range=32 / chroma_me=1 / trellis=2 / 8x8dct=1 / cqm=0 / deadzone=21,11 / fast_pskip=0 / chroma_qp_offset=-3 / threads=12 / lookahead_threads=3 / sliced_threads=0 / nr=0 / decimate=0 / interlaced=0 / bluray_compat=0 / constrained_intra=0 / bframes=12 / b_pyramid=2 / b_adapt=2 / b_bias=0 / direct=3 / weightb=1 / open_gop=0 / weightp=2 / keyint=240 / keyint_min=24 / scenecut=40 / intra_refresh=0 / rc=2pass / mbtree=0 / bitrate=1875 / ratetol=1.0 / qcomp=0.60 / qpmin=0 / qpmax=51 / qpstep=4 / cplxblur=20.0 / qblur=0.5 / ip_ratio=1.40 / pb_ratio=1.30 / aq=1:1.00
Language : English
Default : Yes
Forced : No
Color range : Limited
Color primaries : BT.709
Transfer characteristics : BT.709
Matrix coefficients : BT.709

Audio
ID : 2
Format : AC-3
Format/Info : Audio Coding 3
Mode extension : CM (complete main)
Format settings, Endianness : Big
Codec ID : A_AC3
Duration : 3 h 29 min
Bit rate mode : Constant
Bit rate : 448 kb/s
Channel(s) : 6 channels
Channel positions : Front: L C R, Side: L R, LFE
Sampling rate : 48.0 kHz
Frame rate : 31.250 FPS (1536 spf)
Compression mode : Lossy
Stream size : 671 MiB (19%)
Title : Dub (Netflix)
Language : Russian
Default : Yes
Forced : No

Text #1
ID : 3
Format : UTF-8
Codec ID : S_TEXT/UTF8
Codec ID/Info : UTF-8 Plain Text
Title : Forced
Language : Russian
Default : Yes
Forced : No

Text #2
ID : 4
Format : UTF-8
Codec ID : S_TEXT/UTF8
Codec ID/Info : UTF-8 Plain Text
Title : Full
Language : Russian
Default : No
Forced : No

Text #3
ID : 5
Format : UTF-8
Codec ID : S_TEXT/UTF8
Codec ID/Info : UTF-8 Plain Text
Language : English
Default : No
Forced : No


Релиз от:

Автор релиза: pb.wtf



Скачать Ирландец через торрент https://d.radikal.ru/d43/1911/5a/ae86a7778bdf.jpg Скачать фильм Ирландец через торрент бесплантно в хорошем качестве Описание: Фрэнк Ширан, носивший кличку Ирландец был, на первый взгляд, обычным американским обывателем. Примерный семьянин с женой и ... 10 10 24
Info! Золотая раздача, скачанное не засчитывается.
Торрент: Зарегистрирован [2019-11-29 01:15] · скачан: 1 155 раз
Статус: √ проверено
Размер: 3.4 GB
Как cкачать? Как скачать Ирландец через торрент | qTorrent

% Раздел Тема Автор DL S | L
Фильмы 2019 [DVDrip, WEB-DLRip, HDrip] (DUB, MVO) [ 4.06 GB ] Ирландец / The Irishman [2019 биография WEB-DLRip-AVC] MVO [Jaskier] AVO [Сербин] - ExKinoRay Enigma2010 Скачать
156 | 35

28-11-2019 20:33  

Отключить всю рекламу на сайте

30-11-2019 06:48 Ирландец Скачать торрент  

Фильм хорош.pb.wtf



01-12-2019 16:24 Ирландец Скачать торрент  

Фильм как по накатанной - начинался на отлично закончился на Ну когда это блеять закончиться.... 3.5 часа !!!!!! ТРИ С ПОЛОВИНОЙ ЧАСА !!!!!!!!! можно сказать что в пустую потраченное время.....pb.wtf



01-12-2019 16:56 Ирландец Скачать торрент  

Что ДеНиро, что Аль Пачино - никогда не скрывали, что их ооочень любят гангстеры старой закваски.pb.wtf



03-12-2019 21:19 Ирландец Скачать торрент  

Фильм нормальный любителям криминальных комедии по типу Джон Уика проходите мимо это кино не зайдет.pb.wtf



06-12-2019 04:07 Ирландец Скачать торрент  

де ниро крутой слов нет! но когда он играет молодого и ломает пальцы торговцу в его движениях уже видно что он уже старичок! да и в целом кино очень средненькое!pb.wtf



    Дорогой пользователь! Огромная просьба, поблагодарите релизера, оцените раздачу и оставьте свои комментарий, если Вы скачали Ирландец через торрент бесплатно! Внесите свою лепту в развитие PiratBit!
    Комментировать посты могут только пользователи прошедшие не сложную регистрацию
    Показать сообщения:    

    Ирландец через торрент
    Скачать бесплатно Ирландец
    Ирландец скачать торрент
    Ирландец смотреть онлайн
    Cкачать фильм Ирландец бесплатно
    Ирландец скачать торрент в хорошем качестве
    Ирландец смотреть онлайн бесплатно в хорошем качестве


    Вы не можете начинать темы
    Вы не можете отвечать на сообщения
    Вы не можете редактировать свои сообщения
    Вы не можете удалять свои сообщения
    Вы не можете голосовать в опросах
    Вы не можете прикреплять файлы к сообщениям
    Вы можете скачивать файлы