новый адрес
Ссылка на приватное зеркало всего за 1$. Внимание количество ограничено!!!

iTunes

1+1

iTunes

мы

WEB-DL

1

iTunes

Чернобыль

iTunes

Ральф против интернета

Лицензия

ПШазам

Лицензия

Оно 2

Лицензия

30
pack

Вам бонус

ВАЖНО

!!Акция!!

Alien_RageХит недели

RePack

Resident Evil 21

ИГРА 18+

pack

RePack

jed

!!Акция!!

Alien_Rage

RePack

fifa19

RePack

Assassins Creed: Odyssey

RePack

NEED FOR SPEED™ PAYBACK

3 сезон

9 сезон

Бесстыжие 9 сезон

Все сериалы

все сериалы на PB.wtf

RePack

FAR CRY 5
Ребята, катастрофически не хватает 1900р. для оплаты серверов за Октябрь (всвязи с блокировками трафик упал в 3 раза), 1-2р., выручайте.
  

Курьер / The Courier (Закари Адлер / Zackary Adler) [2019, боевик, драма, WEB-DLRip 720p] [DVO] (Iriano@qwerty) pb.wtf

Курьер через торрент pb.wtf

Раздают: 5 [ 4 KB/s ]
Размер: 2.09 GB | Добавлен: 10 д. назад | Торрент скачан:167 раз
Скачать  

29-11-2019 06:29 Курьер Скачать торрент  

Информация о фильме

Название: Курьер
Оригинальное название: The Courier
Год выхода: 2019
Жанр: боевик, драма
Страна: США, Великобритания
Студия: Lionsgate
Продолжительность: 01:39:34
Перевод: любительский (двухголосый закадровый) Iriano@qwerty

Режиссер: Закари Адлер / Zackary Adler

В ролях: Ольга Куриленко, Гари Олдман, Уильям Моусли, Дермот Малруни, Алисия Агнесон, Амит Шах

О фильме:

Она - курьер на мотоцикле, развозит посылки по ночному Лондону. И именно она помогает выжить единственному свидетелю, который должен дать показания на криминального босса

rating*Sample*

Файл
Качество: WebDLRip 720p
Кодек: AVC
Видео: 1280*720 23,976 fps 2616 kbps bt 0,118
Звук: 44,1 кГ, ac3, 6 ch, 384 kb/c
Формат : Matroska

Версия формата : Version 4

Размер файла : 2,09 Гбайт

Продолжительность : 1 ч. 39 м.

Режим общего битрейта : Переменный

Общий поток : 3002 Кбит/сек

Видео

Идентификатор : 1

Формат : AVC

Формат/Информация : Advanced Video Codec

Профиль формата : Main@L3.2

Настройки формата : CABAC / 3 Ref Frames

Параметр CABAC формата : Да

Параметр RefFrames формата : 3 кадра

Идентификатор кодека : V_MPEG4/ISO/AVC

Продолжительность : 1 ч. 39 м.

Вид битрейта : Переменный

Битрейт : 2616 Кбит/сек

Максимальный битрейт : 5000 Кбит/сек

Ширина : 1280 пикселей

Высота : 720 пикселей

Соотношение сторон : 16:9

Режим частоты кадров : Постоянный

Частота кадров : 23,976 (24000/1001) кадра/сек

Стандарт вещания : NTSC

Цветовое пространство : YUV

Субдискретизация насыщенности : 4:2:0

Битовая глубина : 8 бит

Тип развёртки : Прогрессивная

Бит/(Пиксели*Кадры) : 0.118

Размер потока : 1,82 Гбайт (87%)

Аудио

Формат : AC-3

Формат/Информация : Audio Coding 3

Идентификатор кодека : A_AC3

Продолжительность : 1 ч. 39 м.

Вид битрейта : Постоянный

Битрейт : 384 Кбит/сек

Каналы : 6 каналов

ChannelLayout : L R C LFE Ls Rs

Частота : 44,1 КГц

Частота кадров : 28,711 кадров/сек (1536 SPF)

Битовая глубина : 16 бит

Метод сжатия : С потерями

Размер потока : 274 Мбайт (13%)

Язык : Russian
скриншот  скриншот  скриншот  
pb.wtf



Скачать Курьер через торрент https://i111.fastpic.ru/big/2019/1128/d2/040a2425fb3b9e41eef617f721e8ebd2.jpg Скачать фильм Курьер через торрент бесплантно в хорошем качестве О фильме:Она - курьер на мотоцикле, развозит посылки по ночному Лондону. И именно она помогает выжить единственному свидетелю, который ... 9.5 10 6
Торрент: Зарегистрирован [2019-11-29 06:29] · скачан: 167 раз
Статус: T временная
Размер: 2.09 GB
Как cкачать? Как скачать Курьер через торрент | qTorrent

% Раздел Тема Автор DL S | L
T Фильмы (мультфильмы) cо спонсором показа (Новинки AVI/MKV) [ 4.65 GB ] Курьер / The Courier [2019 WEB-DL 1080p] MVO [@MUZOBOZ@] bober100 Скачать
7 | 0
T Фильмы (мультфильмы) cо спонсором показа (Новинки AVI/MKV) [ 4.09 GB ] Курьер / The Courier [2019 WEB-DL 720p] MVO [@MUZOBOZ@] bober100 Скачать
4 | 0
T Фильмы (мультфильмы) cо спонсором показа (Новинки AVI/MKV) [ 1.37 GB ] Курьер / The Courier [2019 WEB-DLRip] MVO [@MUZOBOZ@] bober100 Скачать
23 | 0
Фильмы 2011 [ 2.04 GB ] Курьер / The Courier [2011 HDRip]2.05GB coc900 Скачать
1 | 0
T Фильмы 2011 [ 1.45 GB ] Курьер / The Courier [2011 Г. HDRip-AVC Любительский ] Mr. Freeman Скачать
1 | 0

28-11-2019 20:33  

Отключить всю рекламу на сайте

    Дорогой пользователь! Огромная просьба, поблагодарите релизера, оцените раздачу и оставьте свои комментарий, если Вы скачали Курьер через торрент бесплатно! Внесите свою лепту в развитие PiratBit!
    Комментировать посты могут только пользователи прошедшие не сложную регистрацию
    Показать сообщения:    

    Курьер через торрент
    Скачать бесплатно Курьер
    Курьер скачать торрент
    Курьер смотреть онлайн
    Cкачать фильм Курьер бесплатно
    Курьер скачать торрент в хорошем качестве
    Курьер смотреть онлайн бесплатно в хорошем качестве


    Вы не можете начинать темы
    Вы не можете отвечать на сообщения
    Вы не можете редактировать свои сообщения
    Вы не можете удалять свои сообщения
    Вы не можете голосовать в опросах
    Вы не можете прикреплять файлы к сообщениям
    Вы можете скачивать файлы