2 сезон

iTunes

1 сезон

1

iTunes

iTunes

iTunes

1 сезон

RePack

30

ИГРА 18+

pack

ВАЖНО

!!Акция!!

Alien_RageХит недели

RePack

MK11
pack

Забери бонус

RePack

jed

!!Акция!!

Alien_Rage

RePack

fifa19

RePack

Assassins Creed: Odyssey

RePack

NEED FOR SPEED™ PAYBACK

4 сезон

9 сезон

Бесстыжие 9 сезон

Все сериалы

все сериалы на PB.wtf

RePack

FAR CRY 5
  

Анатомия убийства / Сезон: 2 / Серии: 1-12 из 12 (Артур Румынский) [2019, Криминал, мелодрама, WEB-DLRip] pb.wtf

Анатомия убийства через торрент pb.wtf

Размер: 6.84 GB | Добавлен: 10 мес. назад | Торрент скачан:30 раз
Скачать  

29-11-2019 15:49 Анатомия убийства Скачать торрент  

Анатомия убийства Год выпуска: 2019
Страна: Россия
Жанр: Криминал, мелодрама
Продолжительность: ~ 00:46:00
Субтитры: отсутствуют

Режиссер: Артур Румынский



В ролях: Дарья Семёнова, Андрей Чернышов, Даниил Спиваковский, Ольга Медынич, Евгений Сидихин, Лариса Удовиченко, Галина Польских, Галина Петрова, Екатерина Волкова, Сергей Чонишвили, Екатерина Соломатина, Дмитрий Мазуров, Александр Никитин, Елена Полякова, Максим Битюков, Григорий Быстрицкий, Иван Косичкин, Дмитрий Фрид, Юлия Максимова, Владислав Павлов, Алексей Рыжков, Мария Куликова, Алексей Князев, Вероника Корниенко, Галина Кашковская, Иван Агапов, Владимир Стеклов, Любовь Матюшина, Дмитрий Бедерин, Юлия Франц, Иван Мамонов, Алексей Войтюк, Вадим Медведев (II), Ирина Бразговка, Михаил Васьков, Алёна Спивак, Евгений Токарев

Описание: У Евгении Волоковой активная и интересная жизнь. Но в один миг все разрушилось из-за страшной нравственной дилеммы. Женщина – патологоанатом, и ей пришлось делать выбор: посадить любовника в тюрьму за преступление или скрыть улики и пойти против правды. Героиня не смогла определиться и сбежала. Женя устроилась частной сиделкой в богатую семью Самсоновых. Ее способность замечать необычные закономерности позволили отметить странное поведение новых работодателей. В результате наблюдений, героиня раскрыла убийство предыдущей сиделки и открыла множество тайн нанимателей. По случайности, женщина познакомилась с соседом Самсоновых, который оказался настоящим шахматным гением и компьютерщиком. Его зовут Сергей Карский. У них сложились странные отношения, и герои стали совместно расследовать другие необычные преступления, связанные с похищениями, убийствами и местью. К тому же, прошлое настигло Евгению. С большим трудом Сергей и Женя избавляются от своих старых секретов и проблем. Но и новые приключения представляют для героев опасность.

Качество: WEB-DLRip
Формат: AVI

Видео: XviD, ~ 1600 Кбит/с, 720x400, 25 кадр/с
Аудио: AC3, 2 ch, 192 Кбит/с
скриншот  скриншот  скриншот  

General
Complete name: H:\fiiles x\Анатомия убийства.2019. WEB-DLRip. Files-x\Anatomiya.ubijstva.s02e02.2019.WEB-DLRip. Files-x.avi
Format: AVI
Format/Info: Audio Video Interleave
File size: 591 MiB
Duration: 45mn 51s
Overall bit rate: 1 802 Kbps
Writing application: VirtualDubMod 1.5.10.3 | www.virtualdub-fr.org || (build 2550/release)
Writing library: VirtualDubMod build 2550/release

Video
ID: 0
Format: MPEG-4 Visual
Format profile: Advanced Simple@L5
Format settings, BVOP: 1
Format settings, QPel: No
Format settings, GMC: No warppoints
Format settings, Matrix: Custom
Codec ID: XVID
Codec ID/Hint: XviD
Duration: 45mn 51s
Bit rate: 1 600 Kbps
Width: 720 pixels
Height: 400 pixels
Display aspect ratio: 16:9
Frame rate: 25.000 fps
Color space: YUV
Chroma subsampling: 4:2:0
Bit depth: 8 bits
Scan type: Progressive
Compression mode: Lossy
Bits/(Pixel*Frame): 0.222
Stream size: 525 MiB (89%)
Writing library: XviD 73

Audio
ID: 1
Format: AC-3
Format/Info: Audio Coding 3
Mode extension: CM (complete main)
Codec ID: 2000
Duration: 45mn 51s
Bit rate mode: Constant
Bit rate: 192 Kbps
Channel(s): 2 channels
Channel positions: Front: L R
Sampling rate: 48.0 KHz
Bit depth: 16 bits
Compression mode: Lossy
Stream size: 63.0 MiB (11%)
Alignment: Split accross interleaves
Interleave, duration: 40 ms (1.00 video frame)
Interleave, preload duration: 500 ms

Раздача ведётся путём добавления новых серий, при каждом добавлении создаётся новый торрент. Чтобы начать докачку новой серии, пользователям необходимо сделать следующее:
- Остановить скачивание.
- Удалить старый торрент у себя из клиента (старые серии удалять не надо).
- Скачать новый торрент и запустить его у себя в клиенте вместо старого, при этом указать клиенту путь в старую папку куда и должно происходить скачивание новых серий.
Ваш клиент при этом должен произвести хеширование (проверку) старой папки (если не производит сам - помогите ему сделать это), и будет докачивать только те серии которых у вас ещё нет. Старые серии при этом не удаляются, а продолжают раздаваться!
pb.wtf



Скачать Анатомия убийства через торрент https://i111.fastpic.ru/big/2019/1129/e4/67dc299f8ee832b57cb73354b51516e4.jpg Скачать фильм Анатомия убийства через торрент бесплантно в хорошем качестве Описание: У Евгении Волоковой активная и интересная жизнь. Но в один миг все разрушилось из-за страшной нравственной дилеммы. Женщина – ... 10 10 5
Торрент: Зарегистрирован [2019-12-08 14:47] · скачан: 30 раз
Статус: √ проверено
Размер: 6.84 GB
Как cкачать? Как скачать Анатомия убийства через торрент | qTorrent

% Раздел Тема Автор DL S | L
Наши сериалы [ 20.23 GB ] Анатомия убийства / Сезон: 2 / Серии: 1-12 из 12 [2019 WEB-DL 1080p] bober100 Скачать
1 | 0
Наши сериалы [ 6.81 GB ] Анатомия убийства / Сезон: 2 / Серии: 1-12 из 12 [2019 WEBRip-AVC] aleksan55 Скачать
1 | 0
Наши сериалы [ 6.81 GB ] Анатомия убийства / Сезон: 2 / Серии: 1-12 из 12 [2019 WEB-DLRip-AVC] bober100 Скачать
1 | 0

28-11-2019 20:33  

Отключить всю рекламу на сайте

    Дорогой пользователь! Огромная просьба, поблагодарите релизера, оцените раздачу и оставьте свои комментарий, если Вы скачали Анатомия убийства через торрент бесплатно! Внесите свою лепту в развитие PiratBit!
    Комментировать посты могут только пользователи прошедшие не сложную регистрацию
    Показать сообщения:    

    Анатомия убийства через торрент
    Скачать бесплатно Анатомия убийства
    Анатомия убийства скачать торрент
    Анатомия убийства смотреть онлайн
    Cкачать фильм Анатомия убийства бесплатно
    Анатомия убийства скачать торрент в хорошем качестве
    Анатомия убийства смотреть онлайн бесплатно в хорошем качестве


    Вы не можете начинать темы
    Вы не можете отвечать на сообщения
    Вы не можете редактировать свои сообщения
    Вы не можете удалять свои сообщения
    Вы не можете голосовать в опросах
    Вы не можете прикреплять файлы к сообщениям
    Вы можете скачивать файлы