Ссылка на приватное зеркало нашего сайта всего за 1$. Внимание количество ограничено!!!

2 сезон

iTunes

iTunes

1

iTunes

iTunes

iTunes

WEBRip

iTunes

30
pack

Вам бонус

ВАЖНО

!!Акция!!

Alien_RageХит недели

RePack

Horizon Zero Dawn

ИГРА 18+

pack

RePack

jed

!!Акция!!

Alien_Rage

RePack

fifa19

RePack

Assassins Creed: Odyssey

RePack

NEED FOR SPEED™ PAYBACK

4 сезон

9 сезон

Бесстыжие 9 сезон

Все сериалы

все сериалы на PB.wtf

RePack

FAR CRY 5
  

Мидуэй / Midway (Роланд Эммерих) [2019, боевик, драма, военный, история, BD Remux 1080p] DUB [iTunes] pb.wtf

Мидуэй через торрент pb.wtf

Раздают: 1 [ 0 KB/s ]
Размер: 28.18 GB | Добавлен: 7 мес. назад | Торрент скачан:152 раза
Скачать  

29-11-2019 16:23 Мидуэй Скачать торрент  

Мидуэй | Midway
Год выпуска: 2019
Страна: США, Гонконг, Канада, Китай
Студия: AGC Studios, Centropolis Entertainment, Entertainment One
Жанр: боевик, драма, военный, история
Продолжительность: 02:18:25
Перевод: Дублированный | iTunes
Субтитры: Русские (Forced), английские

Режиссер: Роланд Эммерих

rating

В ролях: Эд Скрейн, Патрик Уилсон, Вуди Харрельсон, Люк Эванс, Мэнди Мур, Люк Клеинтенк, Деннис Куэйд, Аарон Экхарт, Киан Джонсон, Ник Джонас

Описание: История одного из самых масштабных и стратегически важных морских сражений на Тихом океане Второй мировой войны. В июне 1942 года американский флот под командованием адмирала Честера Нимица одержал победу над японцами в сражении у атолла Мидуэй, что стало ключевым моментом в Тихоокеанской войне.

Качество: BD Remux 1080p
Формат: MKV

Видео: MPEG-4 AVC, 1920x1080, 23.9 Mbit/s, 23.976 fps
Аудио #01: 48 kHz, AC3, 5.1, 384 Kbps | iTunes | RUS |
Аудио #02: 48 kHz, DTS-HD MA, 5.1, 4226 Kbps | Оригинал | ENG |
скриншот  скриншот  скриншот  скриншот  скриншот  

General
Unique ID : 277934206659788949314808511241806237037 (0xD1182E5DB86C01C8381F4D16B88D4D6D)
Complete name : E:Video111Midway.2019.BDREMUX.1080p.seleZen.mkv
Format : Matroska
Format version : Version 4
File size : 28.2 GiB
Duration : 2 h 18 min
Overall bit rate mode : Variable
Overall bit rate : 29.1 Mb/s
Movie name : Midway 2019 from селезень
Encoded date : UTC 2020-02-22 20:11:24
Writing application : mkvmerge v40.0.0 ('Old Town Road + Pony') 64-bit
Writing library : libebml v1.3.9 + libmatroska v1.5.2

Video
ID : 1
Format : AVC
Format/Info : Advanced Video Codec
Format profile : High@L4.1
Format settings : CABAC / 4 Ref Frames
Format settings, CABAC : Yes
Format settings, Reference : 4 frames
Codec ID : V_MPEG4/ISO/AVC
Duration : 2 h 18 min
Bit rate mode : Variable
Bit rate : 23.9 Mb/s
Maximum bit rate : 35.0 Mb/s
Width : 1 920 pixels
Height : 1 080 pixels
Display aspect ratio : 16:9
Frame rate mode : Constant
Frame rate : 23.976 (24000/1001) FPS
Standard : NTSC
Color space : YUV
Chroma subsampling : 4:2:0
Bit depth : 8 bits
Scan type : Progressive
Bits/(Pixel*Frame) : 0.480
Stream size : 23.1 GiB (82%)
Language : English
Default : Yes
Forced : No
Color range : Limited
Color primaries : BT.709
Transfer characteristics : BT.709
Matrix coefficients : BT.709

Audio #1
ID : 2
Format : AC-3
Format/Info : Audio Coding 3
Commercial name : Dolby Digital
Codec ID : A_AC3
Duration : 2 h 18 min
Bit rate mode : Constant
Bit rate : 384 kb/s
Channel(s) : 6 channels
Channel layout : L R C LFE Ls Rs
Sampling rate : 48.0 kHz
Frame rate : 31.250 FPS (1536 SPF)
Compression mode : Lossy
Stream size : 380 MiB (1%)
Title : iTunes
Language : Russian
Service kind : Complete Main
Default : Yes
Forced : Yes

Audio #2
ID : 3
Format : AC-3
Format/Info : Audio Coding 3
Commercial name : Dolby Digital
Codec ID : A_AC3
Duration : 2 h 18 min
Bit rate mode : Constant
Bit rate : 640 kb/s
Channel(s) : 6 channels
Channel layout : L R C LFE Ls Rs
Sampling rate : 48.0 kHz
Frame rate : 31.250 FPS (1536 SPF)
Compression mode : Lossy
Stream size : 634 MiB (2%)
Title : Original
Language : English
Service kind : Complete Main
Default : No
Forced : No

Audio #3
ID : 4
Format : DTS XLL
Format/Info : Digital Theater Systems
Commercial name : DTS-HD Master Audio
Codec ID : A_DTS
Duration : 2 h 18 min
Bit rate mode : Variable
Bit rate : 4 226 kb/s
Channel(s) : 6 channels
Channel layout : C L R Ls Rs LFE
Sampling rate : 48.0 kHz
Frame rate : 93.750 FPS (512 SPF)
Bit depth : 24 bits
Compression mode : Lossless
Stream size : 4.09 GiB (15%)
Title : Original
Language : English
Default : No
Forced : No

Text #1
ID : 5
Format : UTF-8
Codec ID : S_TEXT/UTF8
Codec ID/Info : UTF-8 Plain Text
Duration : 2 h 8 min
Bit rate : 5 b/s
Count of elements : 63
Stream size : 4.86 KiB (0%)
Title : Forced
Language : Russian
Default : Yes
Forced : Yes

Text #2
ID : 6
Format : UTF-8
Codec ID : S_TEXT/UTF8
Codec ID/Info : UTF-8 Plain Text
Duration : 2 h 8 min
Bit rate : 48 b/s
Count of elements : 1590
Stream size : 45.8 KiB (0%)
Title : Full
Language : English
Default : No
Forced : No

Text #3
ID : 7
Format : UTF-8
Codec ID : S_TEXT/UTF8
Codec ID/Info : UTF-8 Plain Text
Duration : 2 h 8 min
Bit rate : 47 b/s
Count of elements : 1657
Stream size : 45.1 KiB (0%)
Title : SDH
Language : English
Default : No
Forced : No

Menu
00:00:00.000 : en:Глава 01
00:06:55.832 : en:Глава 02
00:13:53.207 : en:Глава 03
00:20:24.765 : en:Глава 04
00:27:03.330 : en:Глава 05
00:32:55.182 : en:Глава 06
00:40:35.975 : en:Глава 07
00:46:57.732 : en:Глава 08
00:53:50.769 : en:Глава 09
01:01:12.544 : en:Глава 10
01:07:55.113 : en:Глава 11
01:14:48.734 : en:Глава 12
01:21:41.105 : en:Глава 13
01:27:32.038 : en:Глава 14
01:35:09.537 : en:Глава 15
01:42:11.125 : en:Глава 16
01:48:30.671 : en:Глава 17
01:54:44.127 : en:Глава 18
02:02:23.002 : en:Глава 19
02:09:12.787 : en:Глава 20
pb.wtf



Скачать Мидуэй через торрент http://a.radikal.ru/a06/2002/34/ebc668b03693.jpg Скачать фильм Мидуэй через торрент бесплантно в хорошем качестве Описание: История одного из самых масштабных и стратегически важных морских сражений на Тихом океане Второй мировой войны. В июне 1942 года ... 9.9 10 35
Info! Золотая раздача, скачанное не засчитывается.
Торрент: Зарегистрирован [2020-02-22 20:27] · скачан: 152 раз
Статус: √ проверено
Размер: 28.18 GB
Как cкачать? Как скачать Мидуэй через торрент | qTorrent

% Раздел Тема Автор DL S | L
Фильмы (HD 720p, 1080p) (48-60 fps) [ 18.93 GB ] Мидуэй / Midway [2019 военный история BDRip 1080p 60 fps] sheker187 Скачать
3 | 0
Фильмы [HD 720p, 1080p] (Хороший звук DUB, MVO) [ 8.86 GB ] Мидуэй / Midway [2019 военный история BDRip 1080p] bober100 Скачать
11 | 0
Фильмы (HD 720p, 1080p) (48-60 fps) [ 4.24 GB ] Мидуэй - Midway [2019 военный BDRip - HEVC 1080p 10 bit 60 FPS] - [] dd2d3 Скачать
8 | 0
Ultra HD (UHD: 2K, 4K, 8K) — видео сверхвысокой чёткости [ 73.84 GB ] Мидуэй / Midway [2019 военный история UHD BDRemux 2160p ] bober100 Скачать
2 | 0
Фильмы 2019-2020 [DVDrip, WEB-DLRip, HDrip] (DUB, MVO) [ 2.12 GB ] Мидуэй / Midway [2019 военный история BDRip] - Twi7ter Скачать
44 | 7
Фильмы 2019-2020 [DVDrip, WEB-DLRip, HDrip] (DUB, MVO) [ 1.46 GB ] Мидуэй / Midway [2019 военный история BDRip] - Twi7ter Скачать
68 | 3
Ultra HD (UHD: 2K, 4K, 8K) — видео сверхвысокой чёткости [ 25.41 GB ] Мидуэй / Midway [2019 военный история UHD BDRip 2160p] bober100 Скачать
1 | 0


Последний раз редактировалось: bober100 (2020-01-23 01:59), всего редактировалось 1 раз

28-11-2019 20:33  

Отключить всю рекламу на сайте

    Дорогой пользователь! Огромная просьба, поблагодарите релизера, оцените раздачу и оставьте свои комментарий, если Вы скачали Мидуэй через торрент бесплатно! Внесите свою лепту в развитие PiratBit!
    Комментировать посты могут только пользователи прошедшие не сложную регистрацию
    Показать сообщения:    

    Мидуэй через торрент
    Скачать бесплатно Мидуэй
    Мидуэй скачать торрент
    Мидуэй смотреть онлайн
    Cкачать фильм Мидуэй бесплатно
    Мидуэй скачать торрент в хорошем качестве
    Мидуэй смотреть онлайн бесплатно в хорошем качестве


    Вы не можете начинать темы
    Вы не можете отвечать на сообщения
    Вы не можете редактировать свои сообщения
    Вы не можете удалять свои сообщения
    Вы не можете голосовать в опросах
    Вы не можете прикреплять файлы к сообщениям
    Вы можете скачивать файлы