Ссылка на приватное зеркало всего за 1$. Внимание количество ограничено!!!

OK

1+1

iTunes

мы

OK

1

WEB-DLRip

Джокер

Пифагор

Ведьмак / The Witcher сериал

Лицензия

ПШазам

ОК

Оно 2

iTunes

30
pack

Вам бонус

ВАЖНО

!!Акция!!

Alien_RageХит недели

RePack

Resident Evil 21

ИГРА 18+

pack

RePack

jed

RePack

fifa19

RePack

Assassins Creed: Odyssey

RePack

NEED FOR SPEED™ PAYBACK

4 сезон

9 сезон

Бесстыжие 9 сезон

Все сериалы

все сериалы на PB.wtf

RePack

FAR CRY 5
  

Жестокие игры / Cruel Intentions (Роджер Камбл) [1999, Триллер, драма, мелодрама, BDRip-AVC] MVO+AVO pb.wtf

Жестокие игры через торрент pb.wtf

Размер: 2.37 GB | Добавлен: 1 мес. 23 д. назад | Торрент скачан:17 раз
Скачать  

30-11-2019 06:27 Жестокие игры Скачать торрент  

Жестокие игры / Cruel Intentions
Год выпуска: 1999
Страна: США
Жанр: Триллер, драма, мелодрама
Продолжительность: 01:37:43
Перевод: Профессиональный (многоголосый), авторский одноголосый
Субтитры: Русские, английские

Режиссер: Роджер Камбл

rating

В ролях: Сара Мишель Геллар, Райан Филипп, Риз Уизерспун, Сэльма Блэр, Луиза Флетчер, Джошуа Джексон, Эрик Мэбиас, Шон Патрик Томас, Свузи Кёрц, Кристин Барански, Алайна Рид Холл, Дебора Оффнер, Тара Рид, Херта Уэр, Хьеп Тхи Ле, Чарли О’Коннелл, Фред Норрис, Джинджер Уильямс, Дрю Снайдер

Описание: Себастьян знает сладкий привкус легких побед. В его руках — чужие тайны и ключи от неприступных спален. Катрин устала от простых интриг и банальных признаний. Тогда современный Казанова и скучающая красавица придумывают себе новое развлечение. В их жестокой игре не хватает только жертвы… Экранизация по произведению: Шодерло де Лакло.

Качество: BDRip-AVC
Формат: MKV

Видео: MPEG-4 AVC, 2199 Кбит/с, 1024x554
Аудио#1: Русский (AC3, 6 ch, 384 Кбит/с) - многоголосый
Аудио#2: Русский (AC3, 6 ch, 448 Кбит/с) - авторский (Живов)
Аудио#3: Английский (AC3, 6 ch, 448 Кбит/с)
скриншот  скриншот  скриншот  скриншот  

Общее
Уникальный идентификатор : 225173124347533032800690215294818159208 (0xA966C42B448F71B4B6F7DAE5F3AD8A68)
Полное имя : D:3Zhestokie.igry.1999.x264.BDRip.(AVC).ExKinoRay.mkv
Формат : Matroska
Версия формата : Version 2
Размер файла : 2,37 Гбайт
Продолжительность : 1 ч. 37 м.
Общий поток : 3480 Кбит/сек
Название фильма : Zhestokie.igry.1999.x264.BDRip.(AVC).ExKinoRay
Дата кодирования : UTC 2013-03-05 12:08:45
Программа кодирования : mkvmerge v4.0.0 ('The Stars were mine') сборка от Jun 6 2010 16:18:42
Библиотека кодирования : libebml v1.0.0 + libmatroska v1.0.0

Видео
Идентификатор : 1
Формат : AVC
Формат/Информация : Advanced Video Codec
Профиль формата : High@L4.1
Параметр CABAC формата : Да
Параметр ReFrames формата : 10 кадров
Идентификатор кодека : V_MPEG4/ISO/AVC
Продолжительность : 1 ч. 37 м.
Битрейт : 2199 Кбит/сек
Ширина : 1024 пикселя
Высота : 554 пикселя
Соотношение сторон : 16:9
Частота кадров : 23,976 кадра/сек
Цветовое пространство : YUV
Субдискретизация насыщенности : 4:2:0
Битовая глубина : 8 бит
Тип развёртки : Прогрессивная
Бит/(Пиксели*Кадры) : 0.162
Размер потока : 1,45 Гбайт (61%)
Заголовок : Rip by rondik
Библиотека кодирования : x264 core 129 r2245 bc13772
Настройки программы : cabac=1 / ref=10 / deblock=1:-2:-2 / analyse=0x3:0x133 / me=umh / subme=11 / psy=1 / psy_rd=1.00:0.00 / mixed_ref=1 / me_range=48 / chroma_me=1 / trellis=2 / 8x8dct=1 / cqm=0 / deadzone=21,11 / fast_pskip=0 / chroma_qp_offset=-2 / threads=3 / lookahead_threads=1 / sliced_threads=0 / nr=0 / decimate=0 / interlaced=0 / bluray_compat=0 / constrained_intra=0 / bframes=9 / b_pyramid=2 / b_adapt=2 / b_bias=0 / direct=3 / weightb=1 / open_gop=0 / weightp=2 / keyint=240 / keyint_min=23 / scenecut=40 / intra_refresh=0 / rc_lookahead=40 / rc=2pass / mbtree=1 / bitrate=2199 / ratetol=1.0 / qcomp=0.60 / qpmin=10 / qpmax=51 / qpstep=4 / cplxblur=20.0 / qblur=0.5 / ip_ratio=1.40 / aq=2:1.00
Язык : English

Аудио #1
Идентификатор : 2
Формат : AC-3
Формат/Информация : Audio Coding 3
Расширение режима : CM (complete main)
Идентификатор кодека : A_AC3
Продолжительность : 1 ч. 37 м.
Вид битрейта : Постоянный
Битрейт : 384 Кбит/сек
Каналы : 6 каналов
Расположение каналов : Front: L C R, Side: L R, LFE
Частота : 48,0 КГц
Битовая глубина : 16 бит
Метод сжатия : С потерями
Размер потока : 268 Мбайт (11%)
Заголовок : Профессиональный многоголосый
Язык : Russian

Аудио #2
Идентификатор : 3
Формат : AC-3
Формат/Информация : Audio Coding 3
Расширение режима : CM (complete main)
Идентификатор кодека : A_AC3
Продолжительность : 1 ч. 37 м.
Вид битрейта : Постоянный
Битрейт : 448 Кбит/сек
Каналы : 6 каналов
Расположение каналов : Front: L C R, Side: L R, LFE
Частота : 48,0 КГц
Битовая глубина : 16 бит
Метод сжатия : С потерями
Размер потока : 312 Мбайт (13%)
Заголовок : Авторский одноголосый (Живов)
Язык : Russian

Аудио #3
Идентификатор : 4
Формат : AC-3
Формат/Информация : Audio Coding 3
Расширение режима : CM (complete main)
Идентификатор кодека : A_AC3
Продолжительность : 1 ч. 37 м.
Вид битрейта : Постоянный
Битрейт : 448 Кбит/сек
Каналы : 6 каналов
Расположение каналов : Front: L C R, Side: L R, LFE
Частота : 48,0 КГц
Битовая глубина : 16 бит
Метод сжатия : С потерями
Размер потока : 312 Мбайт (13%)
Заголовок : Английский
Язык : English

Текст #1
Идентификатор : 5
Формат : UTF-8
Идентификатор кодека : S_TEXT/UTF8
Идентификатор кодека/Информация : UTF-8 Plain Text
Язык : Russian

Текст #2
Идентификатор : 6
Формат : UTF-8
Идентификатор кодека : S_TEXT/UTF8
Идентификатор кодека/Информация : UTF-8 Plain Text
Язык : English

Меню
00:00:00.000 : en:Chapter 01
00:07:36.705 : en:Chapter 02
00:14:21.859 : en:Chapter 03
00:18:29.398 : en:Chapter 04
00:22:33.518 : en:Chapter 05
00:30:44.884 : en:Chapter 06
00:34:13.092 : en:Chapter 07
00:41:28.027 : en:Chapter 08
00:49:54.241 : en:Chapter 09
00:53:03.805 : en:Chapter 10
00:58:58.534 : en:Chapter 11
01:05:37.558 : en:Chapter 12
01:11:13.894 : en:Chapter 13
01:17:36.234 : en:Chapter 14
01:23:01.600 : en:Chapter 15
01:25:50.728 : en:Chapter 16

pb.wtf



Скачать Жестокие игры через торрент http://s19.radikal.ru/i192/1702/37/0aceff420103.jpg Скачать фильм Жестокие игры через торрент бесплантно в хорошем качестве Описание: Себастьян знает сладкий привкус легких побед. В его руках — чужие тайны и ключи от неприступных спален. Катрин устала от простых ... 10 10 2
Торрент: Зарегистрирован [2019-11-30 06:27] · скачан: 17 раз
Статус: √ проверено
Размер: 2.37 GB
Как cкачать? Как скачать Жестокие игры через торрент | qTorrent

% Раздел Тема Автор DL S | L
Фильмы [HD 720p, 1080p] (Хороший звук DUB, MVO) [ 7.95 GB ] Жестокие игры / Cruel Intentions [1999 BDRip 1080p 2хMVO + AVO + Original] -Lexx- Скачать
1 | 0

28-11-2019 20:33  

Отключить всю рекламу на сайте

    Дорогой пользователь! Огромная просьба, поблагодарите релизера, оцените раздачу и оставьте свои комментарий, если Вы скачали Жестокие игры через торрент бесплатно! Внесите свою лепту в развитие PiratBit!
    Комментировать посты могут только пользователи прошедшие не сложную регистрацию
    Показать сообщения:    

    Жестокие игры через торрент
    Скачать бесплатно Жестокие игры
    Жестокие игры скачать торрент
    Жестокие игры смотреть онлайн
    Cкачать фильм Жестокие игры бесплатно
    Жестокие игры скачать торрент в хорошем качестве
    Жестокие игры смотреть онлайн бесплатно в хорошем качестве


    Вы не можете начинать темы
    Вы не можете отвечать на сообщения
    Вы не можете редактировать свои сообщения
    Вы не можете удалять свои сообщения
    Вы не можете голосовать в опросах
    Вы не можете прикреплять файлы к сообщениям
    Вы можете скачивать файлы