новый адрес
Ссылка на приватное зеркало всего за 1$. Внимание количество ограничено!!!

iTunes

1+1

iTunes

мы

WEB-DL

1

iTunes

Чернобыль

iTunes

Ральф против интернета

Лицензия

ПШазам

Лицензия

Оно 2

Лицензия

30
pack

Вам бонус

ВАЖНО

!!Акция!!

Alien_RageХит недели

RePack

Resident Evil 21

ИГРА 18+

pack

RePack

jed

!!Акция!!

Alien_Rage

RePack

fifa19

RePack

Assassins Creed: Odyssey

RePack

NEED FOR SPEED™ PAYBACK

3 сезон

9 сезон

Бесстыжие 9 сезон

Все сериалы

все сериалы на PB.wtf

RePack

FAR CRY 5
Ребята, катастрофически не хватает 1900р. для оплаты серверов за Октябрь (всвязи с блокировками трафик упал в 3 раза), 1-2р., выручайте.
  

Rob Halford - The Complete Albums Collection (Set Box, 14 CD) - 2017/ FLAC/ image +.cue/ lossless/ Heavy Metal pb.wtf

Rob Halford - The Complete Albums Collection через торрент pb.wtf

Размер: 5.51 GB | Добавлен: 9 д. назад | Торрент скачан:5 раз
Скачать  

30-11-2019 09:28 Rob Halford - The Complete Albums Collection Скачать торрент  


Rob Halford - The Complete Albums Collection (Set Box, 14 CD)


Год издания: 2017
Страна: UK
Жанр: Heavy Metal
Продолжительность: 12:52:34
Лейбл издания: Legacy
Страна-выпуска диска: EU
Номер по каталогу: 88985338582
Формат: FLAC
Битрейт аудио: Lossless
Тип рипа: image +.cue
Наличие сканов в содержимом раздачи: да


01. Into The Pit (1992 Demo) (4:35)
02. Nailed To The Gun (1992 Demo) (3:35)
03. Now You Die (Previously Unreleased) (3:39)
04. Life In Black (1992 Demo) (4:54)
05. Kill It (1992 Demo) (3:34)
06. Contortion (1992 Demo) (4:22)
07. Forbidden (Previously Unreleased) (4:44)
08. War Of Words (1992 Demo) (4:59)
09. Psycho Suicide (1992 Demo) (4:48)
10. Down (Previously Unreleased) (4:41)
11. Vicious (1992 Demo) (3:16)
12. Beast Denies (Previously Unreleased) (4:49)
13. Laid To Rest (1992 Demo) (5:24)
14. Jesus Saves (1992 Demo) (3:40)
15. Dead Men Talk (Previously Unreleased) (5:12)
16. For All Eternity (1992 Demo) (4:36)

01. Into The Pit (4:14)
02. Nailed To The Gun (3:39)
03. Life In Black (4:35)
04. Immortal Sin (4:39)
05. War Of Words (4:29)
06. Laid To Rest (4:41)
07. For All Eternity (4:43)
08. Little Crazy (3:50)
09. Contortion (4:35)
10. Kill It (3:30)
11. Vicious (3:12)
12. Reality, A New Beginning/Jesus Saves (13:19)

01. Into The Pit (Live) (4:11)
02. Nailed To The Gun (Live) (3:35)
03. Freewheel Burning (Live) (4:45)
04. Little Crazy (Live) (4:57)
05. War Of Words (Bloody Tongue Mix) (6:47)
06. Kill It (Dutch Death Mix) (3:51)
07. Vicious (Middle Finger Mix) (6:06)
08. Immortal Sin (Tolerance Mix) (5:49)
09. Little Crazy (Straight Jacket Mix) (5:55)

01. I Am Alive (4:56)
02. Mouthpiece (3:22)
03. Legacy Of Hate (4:34)
04. Blowout In The Radio Room (4:11)
05. Never Again (3:51)
06. Small Deadly Space (5:20)
07. Gretna Greene (3:53)
08. Beneath The Violence (4:43)
09. Human Crate (6:10)
10. In A World Of My Own Making (13:43)

01. I Am a Pig (3:37)
02. Stutter Kiss (4:31)
03. Water's Leaking (3:54)
04. My Ceiling's Low (3:35)
05. Leave Me Alone (4:31)
06. If (5:06)
07. Deep In The Ground (5:13)
08. Hey, Sha La La (4:23)
09. Wake Up (3:33)
10. Gimp (3:42)
11. Bed of Rust (4:32)

01. Resurrection (3:58)
02. Made In Hell (4:12)
03. Locked And Loaded (3:19)
04. Night Fall (3:41)
05. Silent Screams (7:07)
06. The One You Love To Hate (3:12)
07. Cyberworld (3:09)
08. Slow Down (4:51)
09. Twist (4:09)
10. Temptation (3:32)
11. Drive (4:31)
12. Saviour (2:57)

01. Resurrection (4:02)
02. Made In Hell (4:14)
03. Into The Pit (4:15)
04. Nailed To The Gun (3:38)
05. Light Comes Out Of Black (5:08)
06. Stained Class (5:33)
07. Jawbreaker (3:25)
08. Running Wild (3:02)
09. Slow Down (4:44)
10. The One You Love To Hate (3:10)
11. Life In Black (4:26)
12. Hell's Last Survivor (3:29)
13. Sad Wings (3:34)
14. Savior (3:02)
15. Silent Screams (7:30)

01. Cyber World (3:06)
02. Hellion (0:48)
03. Electric Eye (3:30)
04. Riding On The Wind (3:11)
05. Genocide (7:37)
06. Beyond The Realms Of Death (6:49)
07. Metal Gods (4:35)
08. Breaking The Law (3:53)
09. Blackout (4:19)
10. Tyrant (4:31)
11. Screaming In The Dark (3:39)
12. Heart Of A Lion (3:55)
13. Prisoner Of Your Eyes (4:34)

01. Betrayal (3:04)
02. One Will (3:32)
03. Hearts Of Darkness (3:52)
04. Golgotha (4:23)
05. Handing Out Bullets (3:16)
06. Crystal (4:47)
07. Fugitive (4:02)
08. Wrath Of God (3:12)
09. In The Morning (2:22)
10. Rock The World Forever (3:11)
11. Crucible (4:38)
12. Heretic (3:54)
13. She (4:04)
14. Weaving Sorrow (3:28)
15. Sun (3:48)
16. Trail Of Tears (4:28)

01. Painkiller (6:10)
02. Rapid Fire (4:05)
03. Heretic (5:08)
04. Resurrection (3:17)
05. Made In Hell (4:23)
06. Golgotha (4:33)
07. Into The Pit (3:58)
08. Light Comes Out of Black (6:19)
09. White Heat Red Hot (4:25)
10. Never Satisfied (5:43)
11. Breaking The Law (2:18)
12. Hearts Of Darkness (3:49)
13. Handing Out Bullets (3:21)

01. Diamonds And Rust (3:36)
02. Hellion (0:43)
03. Electric Eye (3:31)
04. Riding On The Wind (4:19)
05. Victim Of Changes (10:09)
06. You've Got Another Thing Comin' (8:21)
07. Heretic (Live In Japan) (3:52)
08. Sun (Live In Japan) (3:33)
09. Golgotha (Live In Japan) (4:31)
10. One Will (Live In Japan) (3:37)

01. Get Into The Spirit (5:26)
02. We Three Kings (4:07)
03. Oh Come O Come Emmanuel (4:38)
04. Winter Song (5:38)
05. What Child Is This (4:27)
06. Christmas For Everyone (3:07)
07. I Don't Care If It's Christmas Night (3:14)
08. Light Of The World (4:14)
09. Oh Holy Night (4:09)
10. Come All Ye Faithful (2:26)

01. Undisputed (5:17)
02. Fire And Ice (2:52)
03. Made Of Metal (4:01)
04. Speed Of Sound (4:32)
05. Like Theres No Tomorrow (4:20)
06. Till The Day I Die (3:50)
07. We Own The Night (3:54)
08. Heartless (3:38)
09. Hell Razor (3:44)
10. Thunder And Lightning (5:28)
11. Twenty Five Years (7:01)
12. Matador (5:39)
13. I Know We Stand A Chance (3:51)
14. The Mower (4:40)

01. Resurrection (3:43)
02. Made In Hell (4:20)
03. Locked And Loaded (3:25)
04. Drop Out (3:56)
05. Made Of Metal (4:05)
06. Undisputed (5:20)
07. Nailed To The Gun (3:41)
08. Golgotha (4:27)
09. Fire And Ice (3:03)
10. Green Manalishi With The Two-Pronged Crown (3:19)
11. Diamonds And Rust (3:33)
12. Jawbreaker (3:41)
13. Cyber World (3:13)
14. Like There's No Tomorrow (4:33)
15. Thunder And Lightning (6:37)

Код:

Exact Audio Copy V1.1 from 23. June 2015

EAC extraction logfile from 27. May 2017, 20:22

Fight / The War Of Words Demos

Used drive  : PIONEER BD-RW   BDR-209D   Adapter: 0  ID: 5

Read mode               : Secure
Utilize accurate stream : Yes
Defeat audio cache      : Yes
Make use of C2 pointers : No

Read offset correction                      : 667
Overread into Lead-In and Lead-Out          : No
Fill up missing offset samples with silence : Yes
Delete leading and trailing silent blocks   : No
Null samples used in CRC calculations       : Yes
Used interface                              : Installed external ASPI interface

Used output format              : User Defined Encoder
Selected bitrate                : 768 kBit/s
Quality                         : High
Add ID3 tag                     : No
Command line compressor         : C:\Program Files (x86)\Exact Audio Copy\FLAC\FLAC.EXE
Additional command line options : -6 -V -T "ARTIST=%artist%" -T "TITLE=%title%" -T "ALBUM=%albumtitle%" -T "DATE=%year%" -T "TRACKNUMBER=%tracknr%" -T "GENRE=%genre%" -T "COMMENT=%comment%" -T "BAND=%albuminterpret%" -T "ALBUMARTIST=%albuminterpret%" -T "COMPOSER=%composer%" %haslyrics%--tag-from-file=LYRICS="%lyricsfile%"%haslyrics% -T "DISCNUMBER=%cdnumber%" -T "TOTALDISCS=%totalcds%" -T "TOTALTRACKS=%numtracks%" %hascover%--picture="%coverfile%"%hascover% %source% -o %dest%

TOC of the extracted CD

     Track |   Start  |  Length  | Start sector | End sector
    ---------------------------------------------------------
        1  |  0:00.00 |  4:35.16 |         0    |    20640
        2  |  4:35.16 |  3:35.37 |     20641    |    36802
        3  |  8:10.53 |  3:38.47 |     36803    |    53199
        4  | 11:49.25 |  4:53.62 |     53200    |    75236
        5  | 16:43.12 |  3:34.28 |     75237    |    91314
        6  | 20:17.40 |  4:21.41 |     91315    |   110930
        7  | 24:39.06 |  4:44.06 |    110931    |   132236
        8  | 29:23.12 |  4:59.24 |    132237    |   154685
        9  | 34:22.36 |  4:48.16 |    154686    |   176301
       10  | 39:10.52 |  4:41.05 |    176302    |   197381
       11  | 43:51.57 |  3:15.66 |    197382    |   212072
       12  | 47:07.48 |  4:48.68 |    212073    |   233740
       13  | 51:56.41 |  5:23.55 |    233741    |   258020
       14  | 57:20.21 |  3:40.25 |    258021    |   274545
       15  | 61:00.46 |  5:12.12 |    274546    |   297957
       16  | 66:12.58 |  4:36.25 |    297958    |   318682

Range status and errors

Selected range

     Filename E:\MUSIC\Fight - The War Of Words Demos.wav

     Peak level 100.0 %
     Extraction speed 8.5 X
     Range quality 100.0 %
     Test CRC D05076C3
     Copy CRC D05076C3
     Copy OK

No errors occurred

AccurateRip summary

Track  1  cannot be verified as accurate (confidence 5)  [6DD21950], AccurateRip returned [F25BB6D2]  (AR v2)
Track  2  cannot be verified as accurate (confidence 5)  [4B82D675], AccurateRip returned [F259E9AE]  (AR v2)
Track  3  cannot be verified as accurate (confidence 5)  [95A86332], AccurateRip returned [94B9F9B2]  (AR v2)
Track  4  cannot be verified as accurate (confidence 5)  [AF10B325], AccurateRip returned [A8A68210]  (AR v2)
Track  5  cannot be verified as accurate (confidence 5)  [114FBD46], AccurateRip returned [B9E3FFEE]  (AR v2)
Track  6  cannot be verified as accurate (confidence 5)  [E9827985], AccurateRip returned [CE0BB933]  (AR v2)
Track  7  cannot be verified as accurate (confidence 5)  [E9A43B21], AccurateRip returned [AC1FF626]  (AR v2)
Track  8  cannot be verified as accurate (confidence 5)  [0BCBC8EC], AccurateRip returned [8502EBAF]  (AR v2)
Track  9  cannot be verified as accurate (confidence 5)  [D729FA5A], AccurateRip returned [C0A893FA]  (AR v2)
Track 10  cannot be verified as accurate (confidence 5)  [548D2E1B], AccurateRip returned [0FC2C28E]  (AR v2)
Track 11  cannot be verified as accurate (confidence 5)  [509E46A8], AccurateRip returned [1CA6791B]  (AR v2)
Track 12  cannot be verified as accurate (confidence 5)  [7EE8BA9B], AccurateRip returned [94E7842C]  (AR v2)
Track 13  cannot be verified as accurate (confidence 5)  [2916D143], AccurateRip returned [750EB6D8]  (AR v2)
Track 14  cannot be verified as accurate (confidence 5)  [20530770], AccurateRip returned [E2A3B7BF]  (AR v2)
Track 15  cannot be verified as accurate (confidence 5)  [BBAC9608], AccurateRip returned [D0DC1E87]  (AR v2)
Track 16  cannot be verified as accurate (confidence 5)  [D6C57A17], AccurateRip returned [1D4ED208]  (AR v2)

No tracks could be verified as accurate
You may have a different pressing from the one(s) in the database

End of status report

Код:

Exact Audio Copy V1.1 from 23. June 2015

EAC extraction logfile from 27. May 2017, 21:02

Fight / War Of Words

Used drive  : PIONEER BD-RW   BDR-209D   Adapter: 0  ID: 5

Read mode               : Secure
Utilize accurate stream : Yes
Defeat audio cache      : Yes
Make use of C2 pointers : No

Read offset correction                      : 667
Overread into Lead-In and Lead-Out          : No
Fill up missing offset samples with silence : Yes
Delete leading and trailing silent blocks   : No
Null samples used in CRC calculations       : Yes
Used interface                              : Installed external ASPI interface

Used output format              : User Defined Encoder
Selected bitrate                : 768 kBit/s
Quality                         : High
Add ID3 tag                     : No
Command line compressor         : C:\Program Files (x86)\Exact Audio Copy\FLAC\FLAC.EXE
Additional command line options : -6 -V -T "ARTIST=%artist%" -T "TITLE=%title%" -T "ALBUM=%albumtitle%" -T "DATE=%year%" -T "TRACKNUMBER=%tracknr%" -T "GENRE=%genre%" -T "COMMENT=%comment%" -T "BAND=%albuminterpret%" -T "ALBUMARTIST=%albuminterpret%" -T "COMPOSER=%composer%" %haslyrics%--tag-from-file=LYRICS="%lyricsfile%"%haslyrics% -T "DISCNUMBER=%cdnumber%" -T "TOTALDISCS=%totalcds%" -T "TOTALTRACKS=%numtracks%" %hascover%--picture="%coverfile%"%hascover% %source% -o %dest%

TOC of the extracted CD

     Track |   Start  |  Length  | Start sector | End sector
    ---------------------------------------------------------
        1  |  0:00.00 |  4:13.38 |         0    |    19012
        2  |  4:13.38 |  3:38.50 |     19013    |    35412
        3  |  7:52.13 |  4:34.47 |     35413    |    56009
        4  | 12:26.60 |  4:39.03 |     56010    |    76937
        5  | 17:05.63 |  4:29.27 |     76938    |    97139
        6  | 21:35.15 |  4:40.50 |     97140    |   118189
        7  | 26:15.65 |  4:42.50 |    118190    |   139389
        8  | 30:58.40 |  3:49.70 |    139390    |   156634
        9  | 34:48.35 |  4:35.13 |    156635    |   177272
       10  | 39:23.48 |  3:30.00 |    177273    |   193022
       11  | 42:53.48 |  3:11.72 |    193023    |   207419
       12  | 46:05.45 | 13:18.63 |    207420    |   267332

Range status and errors

Selected range

     Filename E:\MUSIC\Fight - War Of Words.wav

     Peak level 95.5 %
     Extraction speed 7.8 X
     Range quality 100.0 %
     Test CRC EB79F0EF
     Copy CRC EB79F0EF
     Copy OK

No errors occurred

AccurateRip summary

Track  1  not present in database
Track  2  not present in database
Track  3  not present in database
Track  4  not present in database
Track  5  not present in database
Track  6  not present in database
Track  7  not present in database
Track  8  not present in database
Track  9  not present in database
Track 10  not present in database
Track 11  not present in database
Track 12  not present in database

None of the tracks are present in the AccurateRip database

End of status report

Код:

Exact Audio Copy V1.1 from 23. June 2015

EAC extraction logfile from 27. May 2017, 22:29

Fight / Mutations

Used drive  : PIONEER BD-RW   BDR-209D   Adapter: 0  ID: 5

Read mode               : Secure
Utilize accurate stream : Yes
Defeat audio cache      : Yes
Make use of C2 pointers : No

Read offset correction                      : 667
Overread into Lead-In and Lead-Out          : No
Fill up missing offset samples with silence : Yes
Delete leading and trailing silent blocks   : No
Null samples used in CRC calculations       : Yes
Used interface                              : Installed external ASPI interface

Used output format              : User Defined Encoder
Selected bitrate                : 768 kBit/s
Quality                         : High
Add ID3 tag                     : No
Command line compressor         : C:\Program Files (x86)\Exact Audio Copy\FLAC\FLAC.EXE
Additional command line options : -6 -V -T "ARTIST=%artist%" -T "TITLE=%title%" -T "ALBUM=%albumtitle%" -T "DATE=%year%" -T "TRACKNUMBER=%tracknr%" -T "GENRE=%genre%" -T "COMMENT=%comment%" -T "BAND=%albuminterpret%" -T "ALBUMARTIST=%albuminterpret%" -T "COMPOSER=%composer%" %haslyrics%--tag-from-file=LYRICS="%lyricsfile%"%haslyrics% -T "DISCNUMBER=%cdnumber%" -T "TOTALDISCS=%totalcds%" -T "TOTALTRACKS=%numtracks%" %hascover%--picture="%coverfile%"%hascover% %source% -o %dest%

TOC of the extracted CD

     Track |   Start  |  Length  | Start sector | End sector
    ---------------------------------------------------------
        1  |  0:00.00 |  4:10.73 |         0    |    18822
        2  |  4:10.73 |  3:34.65 |     18823    |    34937
        3  |  7:45.63 |  4:45.02 |     34938    |    56314
        4  | 12:30.65 |  4:56.68 |     56315    |    78582
        5  | 17:27.58 |  6:47.12 |     78583    |   109119
        6  | 24:14.70 |  3:50.70 |    109120    |   126439
        7  | 28:05.65 |  6:05.58 |    126440    |   153872
        8  | 34:11.48 |  5:49.24 |    153873    |   180071
        9  | 40:00.72 |  5:55.18 |    180072    |   206714

Range status and errors

Selected range

     Filename E:\MUSIC\Fight - Mutations.wav

     Peak level 100.0 %
     Extraction speed 4.9 X
     Range quality 100.0 %
     Test CRC B6444440
     Copy CRC B6444440
     Copy OK

No errors occurred

AccurateRip summary

Track  1  cannot be verified as accurate (confidence 18)  [12D63211], AccurateRip returned [6A8BE3C7]  (AR v2)
Track  2  cannot be verified as accurate (confidence 18)  [6CF0C8E9], AccurateRip returned [C2DC5538]  (AR v2)
Track  3  cannot be verified as accurate (confidence 18)  [232E9C42], AccurateRip returned [770903FB]  (AR v2)
Track  4  cannot be verified as accurate (confidence 18)  [B97C9A02], AccurateRip returned [663F0406]  (AR v2)
Track  5  cannot be verified as accurate (confidence 18)  [52315827], AccurateRip returned [81359870]  (AR v2)
Track  6  cannot be verified as accurate (confidence 18)  [20D71CFF], AccurateRip returned [FEB4682E]  (AR v2)
Track  7  cannot be verified as accurate (confidence 18)  [2E5491A1], AccurateRip returned [3A8D53B4]  (AR v2)
Track  8  cannot be verified as accurate (confidence 18)  [5E931507], AccurateRip returned [21E46C0D]  (AR v2)
Track  9  cannot be verified as accurate (confidence 18)  [4BDE1FD6], AccurateRip returned [0519DCD2]  (AR v2)

No tracks could be verified as accurate
You may have a different pressing from the one(s) in the database

End of status report

Код:

Exact Audio Copy V1.1 from 23. June 2015

EAC extraction logfile from 27. May 2017, 22:56

Fight / Small Deadly Space

Used drive  : PIONEER BD-RW   BDR-209D   Adapter: 0  ID: 5

Read mode               : Secure
Utilize accurate stream : Yes
Defeat audio cache      : Yes
Make use of C2 pointers : No

Read offset correction                      : 667
Overread into Lead-In and Lead-Out          : No
Fill up missing offset samples with silence : Yes
Delete leading and trailing silent blocks   : No
Null samples used in CRC calculations       : Yes
Used interface                              : Installed external ASPI interface

Used output format              : User Defined Encoder
Selected bitrate                : 768 kBit/s
Quality                         : High
Add ID3 tag                     : No
Command line compressor         : C:\Program Files (x86)\Exact Audio Copy\FLAC\FLAC.EXE
Additional command line options : -6 -V -T "ARTIST=%artist%" -T "TITLE=%title%" -T "ALBUM=%albumtitle%" -T "DATE=%year%" -T "TRACKNUMBER=%tracknr%" -T "GENRE=%genre%" -T "COMMENT=%comment%" -T "BAND=%albuminterpret%" -T "ALBUMARTIST=%albuminterpret%" -T "COMPOSER=%composer%" %haslyrics%--tag-from-file=LYRICS="%lyricsfile%"%haslyrics% -T "DISCNUMBER=%cdnumber%" -T "TOTALDISCS=%totalcds%" -T "TOTALTRACKS=%numtracks%" %hascover%--picture="%coverfile%"%hascover% %source% -o %dest%

TOC of the extracted CD

     Track |   Start  |  Length  | Start sector | End sector
    ---------------------------------------------------------
        1  |  0:00.00 |  4:56.37 |         0    |    22236
        2  |  4:56.37 |  3:22.33 |     22237    |    37419
        3  |  8:18.70 |  4:34.12 |     37420    |    57981
        4  | 12:53.07 |  4:10.43 |     57982    |    76774
        5  | 17:03.50 |  3:51.17 |     76775    |    94116
        6  | 20:54.67 |  5:19.38 |     94117    |   118079
        7  | 26:14.30 |  3:52.62 |    118080    |   135541
        8  | 30:07.17 |  4:43.25 |    135542    |   156791
        9  | 34:50.42 |  6:09.55 |    156792    |   184521
       10  | 41:00.22 | 13:43.03 |    184522    |   246249

Range status and errors

Selected range

     Filename E:\MUSIC\Fight - Small Deadly Space.wav

     Peak level 97.7 %
     Extraction speed 7.6 X
     Range quality 100.0 %
     Test CRC FCD24385
     Copy CRC FCD24385
     Copy OK

No errors occurred

AccurateRip summary

Track  1  cannot be verified as accurate (confidence 20)  [C40A5C1A], AccurateRip returned [912E02BA]  (AR v2)
Track  2  cannot be verified as accurate (confidence 20)  [11977A3F], AccurateRip returned [3808CC42]  (AR v2)
Track  3  cannot be verified as accurate (confidence 20)  [538DCAD9], AccurateRip returned [E085C6B6]  (AR v2)
Track  4  cannot be verified as accurate (confidence 20)  [A818EA16], AccurateRip returned [BA1C5674]  (AR v2)
Track  5  cannot be verified as accurate (confidence 20)  [830E8945], AccurateRip returned [7D09C1D8]  (AR v2)
Track  6  cannot be verified as accurate (confidence 20)  [A40B1F93], AccurateRip returned [DEB05E97]  (AR v2)
Track  7  cannot be verified as accurate (confidence 20)  [60FE8E50], AccurateRip returned [EAAA7AA4]  (AR v2)
Track  8  cannot be verified as accurate (confidence 20)  [3A2E32B2], AccurateRip returned [D9737FC4]  (AR v2)
Track  9  cannot be verified as accurate (confidence 20)  [16EC6CFF], AccurateRip returned [F1E529AA]  (AR v2)
Track 10  cannot be verified as accurate (confidence 19)  [C611EDA7], AccurateRip returned [22625180]  (AR v2)

No tracks could be verified as accurate
You may have a different pressing from the one(s) in the database

End of status report

Код:

Exact Audio Copy V1.1 from 23. June 2015

EAC extraction logfile from 27. May 2017, 23:10

Two / Voyeurs

Used drive  : PIONEER BD-RW   BDR-209D   Adapter: 0  ID: 5

Read mode               : Secure
Utilize accurate stream : Yes
Defeat audio cache      : Yes
Make use of C2 pointers : No

Read offset correction                      : 667
Overread into Lead-In and Lead-Out          : No
Fill up missing offset samples with silence : Yes
Delete leading and trailing silent blocks   : No
Null samples used in CRC calculations       : Yes
Used interface                              : Installed external ASPI interface

Used output format              : User Defined Encoder
Selected bitrate                : 768 kBit/s
Quality                         : High
Add ID3 tag                     : No
Command line compressor         : C:\Program Files (x86)\Exact Audio Copy\FLAC\FLAC.EXE
Additional command line options : -6 -V -T "ARTIST=%artist%" -T "TITLE=%title%" -T "ALBUM=%albumtitle%" -T "DATE=%year%" -T "TRACKNUMBER=%tracknr%" -T "GENRE=%genre%" -T "COMMENT=%comment%" -T "BAND=%albuminterpret%" -T "ALBUMARTIST=%albuminterpret%" -T "COMPOSER=%composer%" %haslyrics%--tag-from-file=LYRICS="%lyricsfile%"%haslyrics% -T "DISCNUMBER=%cdnumber%" -T "TOTALDISCS=%totalcds%" -T "TOTALTRACKS=%numtracks%" %hascover%--picture="%coverfile%"%hascover% %source% -o %dest%

TOC of the extracted CD

     Track |   Start  |  Length  | Start sector | End sector
    ---------------------------------------------------------
        1  |  0:00.00 |  3:36.65 |         0    |    16264
        2  |  3:36.65 |  4:30.60 |     16265    |    36574
        3  |  8:07.50 |  3:54.12 |     36575    |    54136
        4  | 12:01.62 |  3:34.55 |     54137    |    70241
        5  | 15:36.42 |  4:31.35 |     70242    |    90601
        6  | 20:08.02 |  5:06.23 |     90602    |   113574
        7  | 25:14.25 |  5:12.67 |    113575    |   137041
        8  | 30:27.17 |  4:22.55 |    137042    |   156746
        9  | 34:49.72 |  3:32.45 |    156747    |   172691
       10  | 38:22.42 |  3:41.60 |    172692    |   189326
       11  | 42:04.27 |  4:31.63 |    189327    |   209714

Range status and errors

Selected range

     Filename E:\MUSIC\Two - Voyeurs.wav

     Peak level 100.0 %
     Extraction speed 7.3 X
     Range quality 100.0 %
     Test CRC AFE1FB0F
     Copy CRC AFE1FB0F
     Copy OK

No errors occurred

AccurateRip summary

Track  1  cannot be verified as accurate (confidence 31)  [C3B8D017], AccurateRip returned [94FA143A]  (AR v2)
Track  2  cannot be verified as accurate (confidence 31)  [60673FD0], AccurateRip returned [7AF734FB]  (AR v2)
Track  3  cannot be verified as accurate (confidence 31)  [3E1C4025], AccurateRip returned [53743653]  (AR v2)
Track  4  cannot be verified as accurate (confidence 31)  [62B7943F], AccurateRip returned [CC5007C1]  (AR v2)
Track  5  cannot be verified as accurate (confidence 31)  [1278532F], AccurateRip returned [D85BB0B3]  (AR v2)
Track  6  cannot be verified as accurate (confidence 30)  [BFCFFA6E], AccurateRip returned [BEE389D6]  (AR v2)
Track  7  cannot be verified as accurate (confidence 30)  [9B9D7D07], AccurateRip returned [D308FF19]  (AR v2)
Track  8  cannot be verified as accurate (confidence 29)  [26F08060], AccurateRip returned [0DB0C4F4]  (AR v2)
Track  9  cannot be verified as accurate (confidence 31)  [09793A71], AccurateRip returned [65D299C6]  (AR v2)
Track 10  cannot be verified as accurate (confidence 30)  [F30069CF], AccurateRip returned [9EF800FB]  (AR v2)
Track 11  cannot be verified as accurate (confidence 30)  [98D49658], AccurateRip returned [A8E2103F]  (AR v2)

No tracks could be verified as accurate
You may have a different pressing from the one(s) in the database

End of status report

Код:

Exact Audio Copy V1.1 from 23. June 2015

EAC extraction logfile from 28. May 2017, 9:10

Halford / Resurrection

Used drive  : PIONEER BD-RW   BDR-209D   Adapter: 0  ID: 5

Read mode               : Secure
Utilize accurate stream : Yes
Defeat audio cache      : Yes
Make use of C2 pointers : No

Read offset correction                      : 667
Overread into Lead-In and Lead-Out          : No
Fill up missing offset samples with silence : Yes
Delete leading and trailing silent blocks   : No
Null samples used in CRC calculations       : Yes
Used interface                              : Installed external ASPI interface

Used output format              : User Defined Encoder
Selected bitrate                : 768 kBit/s
Quality                         : High
Add ID3 tag                     : No
Command line compressor         : C:\Program Files (x86)\Exact Audio Copy\FLAC\FLAC.EXE
Additional command line options : -6 -V -T "ARTIST=%artist%" -T "TITLE=%title%" -T "ALBUM=%albumtitle%" -T "DATE=%year%" -T "TRACKNUMBER=%tracknr%" -T "GENRE=%genre%" -T "COMMENT=%comment%" -T "BAND=%albuminterpret%" -T "ALBUMARTIST=%albuminterpret%" -T "COMPOSER=%composer%" %haslyrics%--tag-from-file=LYRICS="%lyricsfile%"%haslyrics% -T "DISCNUMBER=%cdnumber%" -T "TOTALDISCS=%totalcds%" -T "TOTALTRACKS=%numtracks%" %hascover%--picture="%coverfile%"%hascover% %source% -o %dest%

TOC of the extracted CD

     Track |   Start  |  Length  | Start sector | End sector
    ---------------------------------------------------------
        1  |  0:00.00 |  3:58.00 |         0    |    17849
        2  |  3:58.00 |  4:12.05 |     17850    |    36754
        3  |  8:10.05 |  3:18.70 |     36755    |    51674
        4  | 11:29.00 |  3:41.02 |     51675    |    68251
        5  | 15:10.02 |  7:06.45 |     68252    |   100246
        6  | 22:16.47 |  3:11.40 |    100247    |   114611
        7  | 25:28.12 |  3:08.63 |    114612    |   128774
        8  | 28:37.00 |  4:51.12 |    128775    |   150611
        9  | 33:28.12 |  4:08.70 |    150612    |   169281
       10  | 37:37.07 |  3:32.08 |    169282    |   185189
       11  | 41:09.15 |  4:30.40 |    185190    |   205479
       12  | 45:39.55 |  2:57.27 |    205480    |   218781

Range status and errors

Selected range

     Filename E:\MUSIC\Halford - Resurrection.wav

     Peak level 100.0 %
     Extraction speed 7.4 X
     Range quality 100.0 %
     Test CRC C10AF215
     Copy CRC C10AF215
     Copy OK

No errors occurred

AccurateRip summary

Track  1  cannot be verified as accurate (confidence 62)  [F4DD5171], AccurateRip returned [0117ADAB]  (AR v2)
Track  2  cannot be verified as accurate (confidence 61)  [0A47FDFD], AccurateRip returned [2B5D3A5C]  (AR v2)
Track  3  cannot be verified as accurate (confidence 62)  [F2F1272F], AccurateRip returned [AC8BD650]  (AR v2)
Track  4  cannot be verified as accurate (confidence 60)  [7CABCD29], AccurateRip returned [0D6B3EDC]  (AR v2)
Track  5  cannot be verified as accurate (confidence 60)  [4C3B6E4E], AccurateRip returned [476CE33A]  (AR v2)
Track  6  cannot be verified as accurate (confidence 61)  [13C2D5FC], AccurateRip returned [3622F397]  (AR v2)
Track  7  cannot be verified as accurate (confidence 61)  [F0B3ECB9], AccurateRip returned [BF357590]  (AR v2)
Track  8  cannot be verified as accurate (confidence 60)  [F280FDE9], AccurateRip returned [00D3E93A]  (AR v2)
Track  9  cannot be verified as accurate (confidence 59)  [F0649861], AccurateRip returned [7DDDF556]  (AR v2)
Track 10  cannot be verified as accurate (confidence 59)  [79280798], AccurateRip returned [8A28FE86]  (AR v2)
Track 11  cannot be verified as accurate (confidence 59)  [ACBFEB1F], AccurateRip returned [646787D4]  (AR v2)
Track 12  cannot be verified as accurate (confidence 59)  [5876B789], AccurateRip returned [F1717AA0]  (AR v2)

No tracks could be verified as accurate
You may have a different pressing from the one(s) in the database

End of status report

Код:

Exact Audio Copy V1.1 from 23. June 2015

EAC extraction logfile from 28. May 2017, 9:29

Halford / Live Insurrection CD1

Used drive  : PIONEER BD-RW   BDR-209D   Adapter: 0  ID: 5

Read mode               : Secure
Utilize accurate stream : Yes
Defeat audio cache      : Yes
Make use of C2 pointers : No

Read offset correction                      : 667
Overread into Lead-In and Lead-Out          : No
Fill up missing offset samples with silence : Yes
Delete leading and trailing silent blocks   : No
Null samples used in CRC calculations       : Yes
Used interface                              : Installed external ASPI interface

Used output format              : User Defined Encoder
Selected bitrate                : 768 kBit/s
Quality                         : High
Add ID3 tag                     : No
Command line compressor         : C:\Program Files (x86)\Exact Audio Copy\FLAC\FLAC.EXE
Additional command line options : -6 -V -T "ARTIST=%artist%" -T "TITLE=%title%" -T "ALBUM=%albumtitle%" -T "DATE=%year%" -T "TRACKNUMBER=%tracknr%" -T "GENRE=%genre%" -T "COMMENT=%comment%" -T "BAND=%albuminterpret%" -T "ALBUMARTIST=%albuminterpret%" -T "COMPOSER=%composer%" %haslyrics%--tag-from-file=LYRICS="%lyricsfile%"%haslyrics% -T "DISCNUMBER=%cdnumber%" -T "TOTALDISCS=%totalcds%" -T "TOTALTRACKS=%numtracks%" %hascover%--picture="%coverfile%"%hascover% %source% -o %dest%

TOC of the extracted CD

     Track |   Start  |  Length  | Start sector | End sector
    ---------------------------------------------------------
        1  |  0:00.00 |  4:02.23 |         0    |    18172
        2  |  4:02.23 |  4:13.38 |     18173    |    37185
        3  |  8:15.61 |  4:14.52 |     37186    |    56287
        4  | 12:30.38 |  3:38.20 |     56288    |    72657
        5  | 16:08.58 |  5:07.69 |     72658    |    95751
        6  | 21:16.52 |  5:33.11 |     95752    |   120737
        7  | 26:49.63 |  3:25.23 |    120738    |   136135
        8  | 30:15.11 |  3:01.68 |    136136    |   149778
        9  | 33:17.04 |  4:44.09 |    149779    |   171087
       10  | 38:01.13 |  3:10.27 |    171088    |   185364
       11  | 41:11.40 |  4:26.00 |    185365    |   205314
       12  | 45:37.40 |  3:28.43 |    205315    |   220957
       13  | 49:06.08 |  3:33.43 |    220958    |   236975
       14  | 52:39.51 |  3:02.08 |    236976    |   250633
       15  | 55:41.59 |  7:29.39 |    250634    |   284347

Range status and errors

Selected range

     Filename E:\MUSIC\Halford - Live Insurrection CD1.wav

     Peak level 100.0 %
     Extraction speed 8.2 X
     Range quality 100.0 %
     Test CRC 342AC37D
     Copy CRC 342AC37D
     Copy OK

No errors occurred

AccurateRip summary

Track  1  cannot be verified as accurate (confidence 6)  [2C45194D], AccurateRip returned [E66F12A2]  (AR v2)
Track  2  cannot be verified as accurate (confidence 6)  [270382D6], AccurateRip returned [145D8B60]  (AR v2)
Track  3  cannot be verified as accurate (confidence 6)  [1457A409], AccurateRip returned [4F3AA165]  (AR v2)
Track  4  cannot be verified as accurate (confidence 6)  [B5AE97E1], AccurateRip returned [578F02F5]  (AR v2)
Track  5  cannot be verified as accurate (confidence 6)  [F4912F1D], AccurateRip returned [0B9AD877]  (AR v2)
Track  6  cannot be verified as accurate (confidence 6)  [1304BDEE], AccurateRip returned [FC17F4DA]  (AR v2)
Track  7  cannot be verified as accurate (confidence 6)  [C32F7102], AccurateRip returned [1FB5C5AA]  (AR v2)
Track  8  cannot be verified as accurate (confidence 6)  [D9CC2552], AccurateRip returned [A9B63571]  (AR v2)
Track  9  cannot be verified as accurate (confidence 6)  [3B8FDCC2], AccurateRip returned [5B5061A6]  (AR v2)
Track 10  cannot be verified as accurate (confidence 6)  [00ADAE5C], AccurateRip returned [B01C6851]  (AR v2)
Track 11  cannot be verified as accurate (confidence 6)  [425FA89C], AccurateRip returned [73B17095]  (AR v2)
Track 12  cannot be verified as accurate (confidence 6)  [3A0CCA24], AccurateRip returned [21BCDA8D]  (AR v2)
Track 13  cannot be verified as accurate (confidence 6)  [AA39243E], AccurateRip returned [E777C85A]  (AR v2)
Track 14  cannot be verified as accurate (confidence 6)  [E21FC9F8], AccurateRip returned [C2BB1C8C]  (AR v2)
Track 15  cannot be verified as accurate (confidence 6)  [58E7C16C], AccurateRip returned [113CA9C2]  (AR v2)

No tracks could be verified as accurate
You may have a different pressing from the one(s) in the database

End of status report

Код:

Exact Audio Copy V1.1 from 23. June 2015

EAC extraction logfile from 28. May 2017, 9:47

Halford / Live Insurrection CD2

Used drive  : PIONEER BD-RW   BDR-209D   Adapter: 0  ID: 5

Read mode               : Secure
Utilize accurate stream : Yes
Defeat audio cache      : Yes
Make use of C2 pointers : No

Read offset correction                      : 667
Overread into Lead-In and Lead-Out          : No
Fill up missing offset samples with silence : Yes
Delete leading and trailing silent blocks   : No
Null samples used in CRC calculations       : Yes
Used interface                              : Installed external ASPI interface

Used output format              : User Defined Encoder
Selected bitrate                : 768 kBit/s
Quality                         : High
Add ID3 tag                     : No
Command line compressor         : C:\Program Files (x86)\Exact Audio Copy\FLAC\FLAC.EXE
Additional command line options : -6 -V -T "ARTIST=%artist%" -T "TITLE=%title%" -T "ALBUM=%albumtitle%" -T "DATE=%year%" -T "TRACKNUMBER=%tracknr%" -T "GENRE=%genre%" -T "COMMENT=%comment%" -T "BAND=%albuminterpret%" -T "ALBUMARTIST=%albuminterpret%" -T "COMPOSER=%composer%" %haslyrics%--tag-from-file=LYRICS="%lyricsfile%"%haslyrics% -T "DISCNUMBER=%cdnumber%" -T "TOTALDISCS=%totalcds%" -T "TOTALTRACKS=%numtracks%" %hascover%--picture="%coverfile%"%hascover% %source% -o %dest%

TOC of the extracted CD

     Track |   Start  |  Length  | Start sector | End sector
    ---------------------------------------------------------
        1  |  0:00.00 |  3:06.00 |         0    |    13949
        2  |  3:06.00 |  0:48.08 |     13950    |    17557
        3  |  3:54.08 |  3:29.50 |     17558    |    33282
        4  |  7:23.58 |  3:10.55 |     33283    |    47587
        5  | 10:34.38 |  7:37.17 |     47588    |    81879
        6  | 18:11.55 |  6:49.15 |     81880    |   112569
        7  | 25:00.70 |  4:35.20 |    112570    |   133214
        8  | 29:36.15 |  3:52.69 |    133215    |   150683
        9  | 33:29.09 |  4:18.59 |    150684    |   170092
       10  | 37:47.68 |  4:30.51 |    170093    |   190393
       11  | 42:18.44 |  3:39.26 |    190394    |   206844
       12  | 45:57.70 |  3:54.44 |    206845    |   224438
       13  | 49:52.39 |  4:33.60 |    224439    |   244973

Range status and errors

Selected range

     Filename E:\MUSIC\Halford - Live Insurrection CD2.wav

     Peak level 100.0 %
     Extraction speed 7.6 X
     Range quality 100.0 %
     Test CRC DD8109A2
     Copy CRC DD8109A2
     Copy OK

No errors occurred

AccurateRip summary

Track  1  cannot be verified as accurate (confidence 6)  [AB07A53E], AccurateRip returned [D538BDBD]  (AR v2)
Track  2  cannot be verified as accurate (confidence 6)  [DACE8797], AccurateRip returned [75BC4220]  (AR v2)
Track  3  cannot be verified as accurate (confidence 6)  [82709BD5], AccurateRip returned [46916351]  (AR v2)
Track  4  cannot be verified as accurate (confidence 6)  [637723A0], AccurateRip returned [7899F57D]  (AR v2)
Track  5  cannot be verified as accurate (confidence 6)  [64746ED4], AccurateRip returned [4CFD49FE]  (AR v2)
Track  6  cannot be verified as accurate (confidence 6)  [6D73516E], AccurateRip returned [DCDE3763]  (AR v2)
Track  7  cannot be verified as accurate (confidence 6)  [CF611893], AccurateRip returned [EBB1797A]  (AR v2)
Track  8  cannot be verified as accurate (confidence 6)  [AB271E53], AccurateRip returned [28C60237]  (AR v2)
Track  9  cannot be verified as accurate (confidence 6)  [7C56D7FB], AccurateRip returned [1677F754]  (AR v2)
Track 10  cannot be verified as accurate (confidence 6)  [C8124165], AccurateRip returned [0599577C]  (AR v2)
Track 11  cannot be verified as accurate (confidence 7)  [10D99531], AccurateRip returned [2F8CADE6]  (AR v2)
Track 12  cannot be verified as accurate (confidence 7)  [FF599D9F], AccurateRip returned [2F840163]  (AR v2)
Track 13  cannot be verified as accurate (confidence 7)  [59C2CE31], AccurateRip returned [B36CD6B3]  (AR v2)

No tracks could be verified as accurate
You may have a different pressing from the one(s) in the database

End of status report

Код:

Exact Audio Copy V1.1 from 23. June 2015

EAC extraction logfile from 28. May 2017, 10:04

Halford / Crucible

Used drive  : PIONEER BD-RW   BDR-209D   Adapter: 0  ID: 5

Read mode               : Secure
Utilize accurate stream : Yes
Defeat audio cache      : Yes
Make use of C2 pointers : No

Read offset correction                      : 667
Overread into Lead-In and Lead-Out          : No
Fill up missing offset samples with silence : Yes
Delete leading and trailing silent blocks   : No
Null samples used in CRC calculations       : Yes
Used interface                              : Installed external ASPI interface

Used output format              : User Defined Encoder
Selected bitrate                : 768 kBit/s
Quality                         : High
Add ID3 tag                     : No
Command line compressor         : C:\Program Files (x86)\Exact Audio Copy\FLAC\FLAC.EXE
Additional command line options : -6 -V -T "ARTIST=%artist%" -T "TITLE=%title%" -T "ALBUM=%albumtitle%" -T "DATE=%year%" -T "TRACKNUMBER=%tracknr%" -T "GENRE=%genre%" -T "COMMENT=%comment%" -T "BAND=%albuminterpret%" -T "ALBUMARTIST=%albuminterpret%" -T "COMPOSER=%composer%" %haslyrics%--tag-from-file=LYRICS="%lyricsfile%"%haslyrics% -T "DISCNUMBER=%cdnumber%" -T "TOTALDISCS=%totalcds%" -T "TOTALTRACKS=%numtracks%" %hascover%--picture="%coverfile%"%hascover% %source% -o %dest%

TOC of the extracted CD

     Track |   Start  |  Length  | Start sector | End sector
    ---------------------------------------------------------
        1  |  0:00.00 |  3:04.14 |         0    |    13813
        2  |  3:04.14 |  3:32.01 |     13814    |    29714
        3  |  6:36.15 |  3:51.65 |     29715    |    47104
        4  | 10:28.05 |  4:23.26 |     47105    |    66855
        5  | 14:51.31 |  3:15.68 |     66856    |    81548
        6  | 18:07.24 |  4:47.15 |     81549    |   103088
        7  | 22:54.39 |  4:01.40 |    103089    |   121203
        8  | 26:56.04 |  3:12.01 |    121204    |   135604
        9  | 30:08.05 |  2:21.50 |    135605    |   146229
       10  | 32:29.55 |  3:11.30 |    146230    |   160584
       11  | 35:41.10 |  4:38.18 |    160585    |   181452
       12  | 40:19.28 |  3:53.45 |    181453    |   198972
       13  | 44:12.73 |  4:04.04 |    198973    |   217276
       14  | 48:17.02 |  3:27.47 |    217277    |   232848
       15  | 51:44.49 |  3:48.14 |    232849    |   249962
       16  | 55:32.63 |  4:27.52 |    249963    |   270039

Range status and errors

Selected range

     Filename E:\MUSIC\Halford - Crucible.wav

     Peak level 100.0 %
     Extraction speed 7.8 X
     Range quality 99.9 %
     Test CRC B2E43890
     Copy CRC B2E43890
     Copy OK

No errors occurred

AccurateRip summary

Track  1  cannot be verified as accurate (confidence 14)  [8DC4C2DE], AccurateRip returned [3BB74317]  (AR v2)
Track  2  cannot be verified as accurate (confidence 14)  [31B02CF4], AccurateRip returned [2C3E1464]  (AR v2)
Track  3  cannot be verified as accurate (confidence 14)  [EF996695], AccurateRip returned [9A2E5DB9]  (AR v2)
Track  4  cannot be verified as accurate (confidence 14)  [452AE86B], AccurateRip returned [169A2D83]  (AR v2)
Track  5  cannot be verified as accurate (confidence 14)  [3FD543A8], AccurateRip returned [16FB34C6]  (AR v2)
Track  6  cannot be verified as accurate (confidence 14)  [D54EAA4D], AccurateRip returned [A0B59F5A]  (AR v2)
Track  7  cannot be verified as accurate (confidence 14)  [D9E58198], AccurateRip returned [19F32183]  (AR v2)
Track  8  cannot be verified as accurate (confidence 14)  [5208F611], AccurateRip returned [D5047B9B]  (AR v2)
Track  9  cannot be verified as accurate (confidence 14)  [18FD289B], AccurateRip returned [22DCCD21]  (AR v2)
Track 10  cannot be verified as accurate (confidence 14)  [A6BB8829], AccurateRip returned [8814EC98]  (AR v2)
Track 11  cannot be verified as accurate (confidence 14)  [0BCB97E7], AccurateRip returned [709FD983]  (AR v2)
Track 12  cannot be verified as accurate (confidence 14)  [0ED9ED92], AccurateRip returned [10FFC513]  (AR v2)
Track 13  cannot be verified as accurate (confidence 14)  [FAE1C99B], AccurateRip returned [94A7DF86]  (AR v2)
Track 14  cannot be verified as accurate (confidence 14)  [B29FBDA0], AccurateRip returned [E5AEC38C]  (AR v2)
Track 15  cannot be verified as accurate (confidence 14)  [D072EA4F], AccurateRip returned [FDFAEC58]  (AR v2)
Track 16  cannot be verified as accurate (confidence 14)  [8104CB50], AccurateRip returned [5219FCB7]  (AR v2)

No tracks could be verified as accurate
You may have a different pressing from the one(s) in the database

End of status report

Код:

Exact Audio Copy V1.1 from 23. June 2015

EAC extraction logfile from 28. May 2017, 10:20

Halford / Live In Anaheim CD1

Used drive  : PIONEER BD-RW   BDR-209D   Adapter: 0  ID: 5

Read mode               : Secure
Utilize accurate stream : Yes
Defeat audio cache      : Yes
Make use of C2 pointers : No

Read offset correction                      : 667
Overread into Lead-In and Lead-Out          : No
Fill up missing offset samples with silence : Yes
Delete leading and trailing silent blocks   : No
Null samples used in CRC calculations       : Yes
Used interface                              : Installed external ASPI interface

Used output format              : User Defined Encoder
Selected bitrate                : 768 kBit/s
Quality                         : High
Add ID3 tag                     : No
Command line compressor         : C:\Program Files (x86)\Exact Audio Copy\FLAC\FLAC.EXE
Additional command line options : -6 -V -T "ARTIST=%artist%" -T "TITLE=%title%" -T "ALBUM=%albumtitle%" -T "DATE=%year%" -T "TRACKNUMBER=%tracknr%" -T "GENRE=%genre%" -T "COMMENT=%comment%" -T "BAND=%albuminterpret%" -T "ALBUMARTIST=%albuminterpret%" -T "COMPOSER=%composer%" %haslyrics%--tag-from-file=LYRICS="%lyricsfile%"%haslyrics% -T "DISCNUMBER=%cdnumber%" -T "TOTALDISCS=%totalcds%" -T "TOTALTRACKS=%numtracks%" %hascover%--picture="%coverfile%"%hascover% %source% -o %dest%

TOC of the extracted CD

     Track |   Start  |  Length  | Start sector | End sector
    ---------------------------------------------------------
        1  |  0:00.00 |  6:09.69 |         0    |    27743
        2  |  6:09.69 |  4:05.15 |     27744    |    46133
        3  | 10:15.09 |  5:07.60 |     46134    |    69218
        4  | 15:22.69 |  3:17.14 |     69219    |    84007
        5  | 18:40.08 |  4:23.11 |     84008    |   103743
        6  | 23:03.19 |  4:32.46 |    103744    |   124189
        7  | 27:35.65 |  3:57.57 |    124190    |   142021
        8  | 31:33.47 |  6:18.67 |    142022    |   170438
        9  | 37:52.39 |  4:24.74 |    170439    |   190312
       10  | 42:17.38 |  5:42.38 |    190313    |   216000
       11  | 48:00.01 |  2:18.13 |    216001    |   226363
       12  | 50:18.14 |  3:49.16 |    226364    |   243554
       13  | 54:07.30 |  3:20.57 |    243555    |   258611

Range status and errors

Selected range

     Filename E:\MUSIC\Halford - Live In Anaheim CD1.wav

     Peak level 100.0 %
     Extraction speed 7.6 X
     Range quality 99.9 %
     Test CRC 369DA89D
     Copy CRC 369DA89D
     Copy OK

No errors occurred

AccurateRip summary

Track  1  cannot be verified as accurate (confidence 13)  [D0801C18], AccurateRip returned [D1F1F1B2]  (AR v2)
Track  2  cannot be verified as accurate (confidence 13)  [B6312673], AccurateRip returned [BF70DF6C]  (AR v2)
Track  3  cannot be verified as accurate (confidence 13)  [451BE6C0], AccurateRip returned [5BF6EAC6]  (AR v2)
Track  4  cannot be verified as accurate (confidence 13)  [78824B64], AccurateRip returned [C12A9D9F]  (AR v2)
Track  5  cannot be verified as accurate (confidence 13)  [F31B26E6], AccurateRip returned [98A5F8C4]  (AR v2)
Track  6  cannot be verified as accurate (confidence 13)  [B2071FB7], AccurateRip returned [E6FF87A3]  (AR v2)
Track  7  cannot be verified as accurate (confidence 13)  [F9D0A68D], AccurateRip returned [A272B481]  (AR v2)
Track  8  cannot be verified as accurate (confidence 13)  [07F0D993], AccurateRip returned [B2050537]  (AR v2)
Track  9  cannot be verified as accurate (confidence 13)  [B3ADE365], AccurateRip returned [E10A0CEA]  (AR v2)
Track 10  cannot be verified as accurate (confidence 13)  [416B2495], AccurateRip returned [DBCF96B9]  (AR v2)
Track 11  cannot be verified as accurate (confidence 13)  [CB37480C], AccurateRip returned [6F5C9FA7]  (AR v2)
Track 12  cannot be verified as accurate (confidence 13)  [25A5460E], AccurateRip returned [4FFDBD54]  (AR v2)
Track 13  cannot be verified as accurate (confidence 12)  [C6C07978], AccurateRip returned [5368F2F6]  (AR v2)

No tracks could be verified as accurate
You may have a different pressing from the one(s) in the database

End of status report

Код:

Exact Audio Copy V1.1 from 23. June 2015

EAC extraction logfile from 28. May 2017, 10:35

Halford / Live In Anaheim CD2

Used drive  : PIONEER BD-RW   BDR-209D   Adapter: 0  ID: 5

Read mode               : Secure
Utilize accurate stream : Yes
Defeat audio cache      : Yes
Make use of C2 pointers : No

Read offset correction                      : 667
Overread into Lead-In and Lead-Out          : No
Fill up missing offset samples with silence : Yes
Delete leading and trailing silent blocks   : No
Null samples used in CRC calculations       : Yes
Used interface                              : Installed external ASPI interface

Used output format              : User Defined Encoder
Selected bitrate                : 768 kBit/s
Quality                         : High
Add ID3 tag                     : No
Command line compressor         : C:\Program Files (x86)\Exact Audio Copy\FLAC\FLAC.EXE
Additional command line options : -6 -V -T "ARTIST=%artist%" -T "TITLE=%title%" -T "ALBUM=%albumtitle%" -T "DATE=%year%" -T "TRACKNUMBER=%tracknr%" -T "GENRE=%genre%" -T "COMMENT=%comment%" -T "BAND=%albuminterpret%" -T "ALBUMARTIST=%albuminterpret%" -T "COMPOSER=%composer%" %haslyrics%--tag-from-file=LYRICS="%lyricsfile%"%haslyrics% -T "DISCNUMBER=%cdnumber%" -T "TOTALDISCS=%totalcds%" -T "TOTALTRACKS=%numtracks%" %hascover%--picture="%coverfile%"%hascover% %source% -o %dest%

TOC of the extracted CD

     Track |   Start  |  Length  | Start sector | End sector
    ---------------------------------------------------------
        1  |  0:00.00 |  3:36.28 |         0    |    16227
        2  |  3:36.28 |  0:43.26 |     16228    |    19478
        3  |  4:19.54 |  3:30.66 |     19479    |    35294
        4  |  7:50.45 |  4:19.26 |     35295    |    54745
        5  | 12:09.71 | 10:09.36 |     54746    |   100456
        6  | 22:19.32 |  8:20.45 |    100457    |   138001
        7  | 30:40.02 |  3:51.48 |    138002    |   155374
        8  | 34:31.50 |  3:32.39 |    155375    |   171313
        9  | 38:04.14 |  4:31.35 |    171314    |   191673
       10  | 42:35.49 |  3:37.06 |    191674    |   207954

Range status and errors

Selected range

     Filename E:\MUSIC\Halford - Live In Anaheim CD2.wav

     Peak level 99.4 %
     Extraction speed 7.3 X
     Range quality 100.0 %
     Test CRC 4A89A482
     Copy CRC 4A89A482
     Copy OK

No errors occurred

AccurateRip summary

Track  1  cannot be verified as accurate (confidence 13)  [376D881F], AccurateRip returned [42B78DFE]  (AR v2)
Track  2  cannot be verified as accurate (confidence 13)  [616E2AC4], AccurateRip returned [4FF231E5]  (AR v2)
Track  3  cannot be verified as accurate (confidence 13)  [FE59AFD3], AccurateRip returned [811C7742]  (AR v2)
Track  4  cannot be verified as accurate (confidence 13)  [F4D8BB84], AccurateRip returned [6748BDDF]  (AR v2)
Track  5  cannot be verified as accurate (confidence 13)  [763E53AA], AccurateRip returned [E7590DBE]  (AR v2)
Track  6  cannot be verified as accurate (confidence 13)  [661EA984], AccurateRip returned [DEDFE079]  (AR v2)
Track  7  cannot be verified as accurate (confidence 13)  [F0CC00A9], AccurateRip returned [125DE0BB]  (AR v2)
Track  8  cannot be verified as accurate (confidence 13)  [329C7DF6], AccurateRip returned [0AB460CC]  (AR v2)
Track  9  cannot be verified as accurate (confidence 13)  [4D9E1A74], AccurateRip returned [81CB60FB]  (AR v2)
Track 10  cannot be verified as accurate (confidence 12)  [125B0426], AccurateRip returned [6E269409]  (AR v2)

No tracks could be verified as accurate
You may have a different pressing from the one(s) in the database

End of status report

Код:

Exact Audio Copy V1.1 from 23. June 2015

EAC extraction logfile from 28. May 2017, 11:13

Halford / Halford 3: Winter Songs

Used drive  : PIONEER BD-RW   BDR-209D   Adapter: 0  ID: 5

Read mode               : Secure
Utilize accurate stream : Yes
Defeat audio cache      : Yes
Make use of C2 pointers : No

Read offset correction                      : 667
Overread into Lead-In and Lead-Out          : No
Fill up missing offset samples with silence : Yes
Delete leading and trailing silent blocks   : No
Null samples used in CRC calculations       : Yes
Used interface                              : Installed external ASPI interface

Used output format              : User Defined Encoder
Selected bitrate                : 768 kBit/s
Quality                         : High
Add ID3 tag                     : No
Command line compressor         : C:\Program Files (x86)\Exact Audio Copy\FLAC\FLAC.EXE
Additional command line options : -6 -V -T "ARTIST=%artist%" -T "TITLE=%title%" -T "ALBUM=%albumtitle%" -T "DATE=%year%" -T "TRACKNUMBER=%tracknr%" -T "GENRE=%genre%" -T "COMMENT=%comment%" -T "BAND=%albuminterpret%" -T "ALBUMARTIST=%albuminterpret%" -T "COMPOSER=%composer%" %haslyrics%--tag-from-file=LYRICS="%lyricsfile%"%haslyrics% -T "DISCNUMBER=%cdnumber%" -T "TOTALDISCS=%totalcds%" -T "TOTALTRACKS=%numtracks%" %hascover%--picture="%coverfile%"%hascover% %source% -o %dest%

TOC of the extracted CD

     Track |   Start  |  Length  | Start sector | End sector
    ---------------------------------------------------------
        1  |  0:00.00 |  5:26.02 |         0    |    24451
        2  |  5:26.02 |  4:06.71 |     24452    |    42972
        3  |  9:32.73 |  4:38.01 |     42973    |    63823
        4  | 14:10.74 |  5:38.02 |     63824    |    89175
        5  | 19:49.01 |  4:27.02 |     89176    |   109202
        6  | 24:16.03 |  3:06.70 |    109203    |   123222
        7  | 27:22.73 |  3:14.19 |    123223    |   137791
        8  | 30:37.17 |  4:13.58 |    137792    |   156824
        9  | 34:51.00 |  4:09.25 |    156825    |   175524
       10  | 39:00.25 |  2:26.00 |    175525    |   186474

Range status and errors

Selected range

     Filename E:\MUSIC\Halford - Halford 3- Winter Songs.wav

     Peak level 99.7 %
     Extraction speed 7.0 X
     Range quality 99.9 %
     Test CRC A10D52EC
     Copy CRC A10D52EC
     Copy OK

No errors occurred

AccurateRip summary

Track  1  cannot be verified as accurate (confidence 2)  [6A866A0B], AccurateRip returned [6E6DEAFC]  (AR v2)
Track  2  cannot be verified as accurate (confidence 2)  [DB43848A], AccurateRip returned [BEE7B934]  (AR v2)
Track  3  cannot be verified as accurate (confidence 2)  [7761ECDB], AccurateRip returned [FE251824]  (AR v2)
Track  4  cannot be verified as accurate (confidence 2)  [030357BB], AccurateRip returned [417D0C2D]  (AR v2)
Track  5  cannot be verified as accurate (confidence 2)  [99C34E62], AccurateRip returned [7FBAFCFA]  (AR v2)
Track  6  cannot be verified as accurate (confidence 2)  [6CE6B9DB], AccurateRip returned [5FE35779]  (AR v2)
Track  7  cannot be verified as accurate (confidence 2)  [4CFD26C5], AccurateRip returned [E1AE63EF]  (AR v2)
Track  8  cannot be verified as accurate (confidence 2)  [62170A57], AccurateRip returned [21023C53]  (AR v2)
Track  9  cannot be verified as accurate (confidence 2)  [3B85DA50], AccurateRip returned [19E07AE4]  (AR v2)
Track 10  cannot be verified as accurate (confidence 2)  [CF88710E], AccurateRip returned [FD6C60BB]  (AR v2)

No tracks could be verified as accurate
You may have a different pressing from the one(s) in the database

End of status report

Код:

Exact Audio Copy V1.1 from 23. June 2015

EAC extraction logfile from 28. May 2017, 11:37

Halford / Halford IV - Made Of Metal

Used drive  : PIONEER BD-RW   BDR-209D   Adapter: 0  ID: 5

Read mode               : Secure
Utilize accurate stream : Yes
Defeat audio cache      : Yes
Make use of C2 pointers : No

Read offset correction                      : 667
Overread into Lead-In and Lead-Out          : No
Fill up missing offset samples with silence : Yes
Delete leading and trailing silent blocks   : No
Null samples used in CRC calculations       : Yes
Used interface                              : Installed external ASPI interface

Used output format              : User Defined Encoder
Selected bitrate                : 768 kBit/s
Quality                         : High
Add ID3 tag                     : No
Command line compressor         : C:\Program Files (x86)\Exact Audio Copy\FLAC\FLAC.EXE
Additional command line options : -6 -V -T "ARTIST=%artist%" -T "TITLE=%title%" -T "ALBUM=%albumtitle%" -T "DATE=%year%" -T "TRACKNUMBER=%tracknr%" -T "GENRE=%genre%" -T "COMMENT=%comment%" -T "BAND=%albuminterpret%" -T "ALBUMARTIST=%albuminterpret%" -T "COMPOSER=%composer%" %haslyrics%--tag-from-file=LYRICS="%lyricsfile%"%haslyrics% -T "DISCNUMBER=%cdnumber%" -T "TOTALDISCS=%totalcds%" -T "TOTALTRACKS=%numtracks%" %hascover%--picture="%coverfile%"%hascover% %source% -o %dest%

TOC of the extracted CD

     Track |   Start  |  Length  | Start sector | End sector
    ---------------------------------------------------------
        1  |  0:00.00 |  5:16.54 |         0    |    23753
        2  |  5:16.54 |  2:52.27 |     23754    |    36680
        3  |  8:09.06 |  4:01.01 |     36681    |    54756
        4  | 12:10.07 |  4:31.68 |     54757    |    75149
        5  | 16:42.00 |  4:20.13 |     75150    |    94662
        6  | 21:02.13 |  3:50.19 |     94663    |   111931
        7  | 24:52.32 |  3:54.06 |    111932    |   129487
        8  | 28:46.38 |  3:37.70 |    129488    |   145832
        9  | 32:24.33 |  3:44.30 |    145833    |   162662
       10  | 36:08.63 |  5:27.51 |    162663    |   187238
       11  | 41:36.39 |  7:00.50 |    187239    |   218788
       12  | 48:37.14 |  5:39.09 |    218789    |   244222
       13  | 54:16.23 |  3:51.28 |    244223    |   261575
       14  | 58:07.51 |  4:40.16 |    261576    |   282591

Range status and errors

Selected range

     Filename E:\MUSIC\Halford - Halford IV - Made Of Metal.wav

     Peak level 94.7 %
     Extraction speed 8.1 X
     Range quality 99.9 %
     Test CRC C84617AD
     Copy CRC C84617AD
     Copy OK

No errors occurred

AccurateRip summary

Track  1  cannot be verified as accurate (confidence 22)  [4301DCC4], AccurateRip returned [A3DD8423]  (AR v2)
Track  2  cannot be verified as accurate (confidence 23)  [78A850BC], AccurateRip returned [9AD66CE2]  (AR v2)
Track  3  cannot be verified as accurate (confidence 23)  [3B77F3CD], AccurateRip returned [0D5D8D4C]  (AR v2)
Track  4  cannot be verified as accurate (confidence 22)  [33C25ECD], AccurateRip returned [6BB241A8]  (AR v2)
Track  5  cannot be verified as accurate (confidence 22)  [12680F2A], AccurateRip returned [B226BB5E]  (AR v2)
Track  6  cannot be verified as accurate (confidence 23)  [16F3CE2C], AccurateRip returned [E2B7EE57]  (AR v2)
Track  7  cannot be verified as accurate (confidence 22)  [49F2FCBA], AccurateRip returned [AD152F46]  (AR v2)
Track  8  cannot be verified as accurate (confidence 22)  [1149F9B1], AccurateRip returned [79E22791]  (AR v2)
Track  9  cannot be verified as accurate (confidence 23)  [DC59199E], AccurateRip returned [479CAC4A]  (AR v2)
Track 10  cannot be verified as accurate (confidence 22)  [B47A299D], AccurateRip returned [F6914DEB]  (AR v2)
Track 11  cannot be verified as accurate (confidence 22)  [68EFD77D], AccurateRip returned [126A4C1C]  (AR v2)
Track 12  cannot be verified as accurate (confidence 22)  [8D28B837], AccurateRip returned [41783D07]  (AR v2)
Track 13  cannot be verified as accurate (confidence 22)  [2AD1FFC1], AccurateRip returned [DA1FDB95]  (AR v2)
Track 14  cannot be verified as accurate (confidence 22)  [0D047A10], AccurateRip returned [0D090CC5]  (AR v2)

No tracks could be verified as accurate
You may have a different pressing from the one(s) in the database

End of status report

Код:

Exact Audio Copy V1.1 from 23. June 2015

EAC extraction logfile from 28. May 2017, 12:36

Halford / Live At Saitama Super Arena

Used drive  : PIONEER BD-RW   BDR-209D   Adapter: 0  ID: 5

Read mode               : Secure
Utilize accurate stream : Yes
Defeat audio cache      : Yes
Make use of C2 pointers : No

Read offset correction                      : 667
Overread into Lead-In and Lead-Out          : No
Fill up missing offset samples with silence : Yes
Delete leading and trailing silent blocks   : No
Null samples used in CRC calculations       : Yes
Used interface                              : Installed external ASPI interface

Used output format              : User Defined Encoder
Selected bitrate                : 768 kBit/s
Quality                         : High
Add ID3 tag                     : No
Command line compressor         : C:\Program Files (x86)\Exact Audio Copy\FLAC\FLAC.EXE
Additional command line options : -6 -V -T "ARTIST=%artist%" -T "TITLE=%title%" -T "ALBUM=%albumtitle%" -T "DATE=%year%" -T "TRACKNUMBER=%tracknr%" -T "GENRE=%genre%" -T "COMMENT=%comment%" -T "BAND=%albuminterpret%" -T "ALBUMARTIST=%albuminterpret%" -T "COMPOSER=%composer%" %haslyrics%--tag-from-file=LYRICS="%lyricsfile%"%haslyrics% -T "DISCNUMBER=%cdnumber%" -T "TOTALDISCS=%totalcds%" -T "TOTALTRACKS=%numtracks%" %hascover%--picture="%coverfile%"%hascover% %source% -o %dest%

TOC of the extracted CD

     Track |   Start  |  Length  | Start sector | End sector
    ---------------------------------------------------------
        1  |  0:00.00 |  3:42.73 |         0    |    16722
        2  |  3:42.73 |  4:19.74 |     16723    |    36221
        3  |  8:02.72 |  3:24.39 |     36222    |    51560
        4  | 11:27.36 |  3:55.58 |     51561    |    69243
        5  | 15:23.19 |  4:04.40 |     69244    |    87583
        6  | 19:27.59 |  5:19.65 |     87584    |   111573
        7  | 24:47.49 |  3:40.48 |    111574    |   128121
        8  | 28:28.22 |  4:26.68 |    128122    |   148139
        9  | 32:55.15 |  3:03.07 |    148140    |   161871
       10  | 35:58.22 |  3:18.66 |    161872    |   176787
       11  | 39:17.13 |  3:33.31 |    176788    |   192793
       12  | 42:50.44 |  3:41.35 |    192794    |   209403
       13  | 46:32.04 |  3:12.46 |    209404    |   223849
       14  | 49:44.50 |  4:32.46 |    223850    |   244295
       15  | 54:17.21 |  6:37.27 |    244296    |   274097

Range status and errors

Selected range

     Filename E:\MUSIC\Halford - Live At Saitama Super Arena.wav

     Peak level 100.0 %
     Extraction speed 8.0 X
     Range quality 99.9 %
     Test CRC AB542075
     Copy CRC AB542075
     Copy OK

No errors occurred

AccurateRip summary

Track  1  cannot be verified as accurate (confidence 8)  [8EED51DB], AccurateRip returned [04D3373E]  (AR v2)
Track  2  cannot be verified as accurate (confidence 8)  [B2EE27C4], AccurateRip returned [E977030C]  (AR v2)
Track  3  cannot be verified as accurate (confidence 8)  [62028E52], AccurateRip returned [BA34270D]  (AR v2)
Track  4  cannot be verified as accurate (confidence 8)  [30C1763A], AccurateRip returned [B892288A]  (AR v2)
Track  5  cannot be verified as accurate (confidence 8)  [1B7BB0B2], AccurateRip returned [2429C896]  (AR v2)
Track  6  cannot be verified as accurate (confidence 8)  [4FCCA9E7], AccurateRip returned [E4435CEA]  (AR v2)
Track  7  cannot be verified as accurate (confidence 8)  [5147DDAA], AccurateRip returned [9F481D41]  (AR v2)
Track  8  cannot be verified as accurate (confidence 8)  [1D8A87B3], AccurateRip returned [01AAB712]  (AR v2)
Track  9  cannot be verified as accurate (confidence 8)  [1040CAD9], AccurateRip returned [35902A44]  (AR v2)
Track 10  cannot be verified as accurate (confidence 8)  [2F95D63C], AccurateRip returned [12F7FE93]  (AR v2)
Track 11  cannot be verified as accurate (confidence 8)  [62BA9BCB], AccurateRip returned [E14C5D78]  (AR v2)
Track 12  cannot be verified as accurate (confidence 8)  [1771C076], AccurateRip returned [10D7AD25]  (AR v2)
Track 13  cannot be verified as accurate (confidence 8)  [79A82775], AccurateRip returned [9234C4B5]  (AR v2)
Track 14  cannot be verified as accurate (confidence 8)  [DF7472ED], AccurateRip returned [E41156D2]  (AR v2)
Track 15  cannot be verified as accurate (confidence 8)  [D72E5D7D], AccurateRip returned [AB2166AC]  (AR v2)

No tracks could be verified as accurate
You may have a different pressing from the one(s) in the database

End of status report

Код:

REM GENRE Heavy Metal
REM DATE 2007
REM DISCID DB109910
REM COMMENT ExactAudioCopy v1.1
PERFORMER "Fight"
TITLE "The War Of Words Demos"
FILE "Fight - The War Of Words Demos.flac" WAVE
  TRACK 01 AUDIO
    TITLE "Into The Pit (1992 Demo)"
    INDEX 01 00:00:00
  TRACK 02 AUDIO
    TITLE "Nailed To The Gun (1992 Demo)"
    INDEX 01 04:35:16
  TRACK 03 AUDIO
    TITLE "Now You Die (Previously Unreleased)"
    INDEX 01 08:10:53
  TRACK 04 AUDIO
    TITLE "Life In Black (1992 Demo)"
    INDEX 01 11:49:25
  TRACK 05 AUDIO
    TITLE "Kill It (1992 Demo)"
    INDEX 01 16:43:12
  TRACK 06 AUDIO
    TITLE "Contortion (1992 Demo)"
    INDEX 01 20:17:40
  TRACK 07 AUDIO
    TITLE "Forbidden (Previously Unreleased)"
    INDEX 01 24:39:06
  TRACK 08 AUDIO
    TITLE "War Of Words (1992 Demo)"
    INDEX 01 29:23:12
  TRACK 09 AUDIO
    TITLE "Psycho Suicide (1992 Demo)"
    INDEX 01 34:22:36
  TRACK 10 AUDIO
    TITLE "Down (Previously Unreleased)"
    INDEX 01 39:10:52
  TRACK 11 AUDIO
    TITLE "Vicious (1992 Demo)"
    INDEX 01 43:51:57
  TRACK 12 AUDIO
    TITLE "Beast Denies (Previously Unreleased)"
    INDEX 01 47:07:48
  TRACK 13 AUDIO
    TITLE "Laid To Rest (1992 Demo)"
    INDEX 01 51:56:41
  TRACK 14 AUDIO
    TITLE "Jesus Saves (1992 Demo)"
    INDEX 01 57:20:21
  TRACK 15 AUDIO
    TITLE "Dead Men Talk (Previously Unreleased)"
    INDEX 01 61:00:46
  TRACK 16 AUDIO
    TITLE "For All Eternity (1992 Demo)"
    INDEX 01 66:12:58

Код:

REM GENRE Heavy Metal
REM DATE 1993
REM DISCID B40DEC0C
REM COMMENT ExactAudioCopy v1.1
PERFORMER "Fight"
TITLE "War Of Words"
FILE "Fight - War Of Words.flac" WAVE
  TRACK 01 AUDIO
    TITLE "Into The Pit"
    INDEX 01 00:00:00
  TRACK 02 AUDIO
    TITLE "Nailed To The Gun"
    INDEX 01 04:13:38
  TRACK 03 AUDIO
    TITLE "Life In Black"
    INDEX 01 07:52:13
  TRACK 04 AUDIO
    TITLE "Immortal Sin"
    INDEX 01 12:26:60
  TRACK 05 AUDIO
    TITLE "War Of Words"
    INDEX 01 17:05:63
  TRACK 06 AUDIO
    TITLE "Laid To Rest"
    INDEX 01 21:35:15
  TRACK 07 AUDIO
    TITLE "For All Eternity"
    INDEX 00 26:15:15
    INDEX 01 26:15:65
  TRACK 08 AUDIO
    TITLE "Little Crazy"
    INDEX 01 30:58:40
  TRACK 09 AUDIO
    TITLE "Contortion"
    INDEX 01 34:48:35
  TRACK 10 AUDIO
    TITLE "Kill It"
    INDEX 01 39:23:48
  TRACK 11 AUDIO
    TITLE "Vicious"
    INDEX 01 42:53:48
  TRACK 12 AUDIO
    TITLE "Reality, A New Beginning/Jesus Saves"
    INDEX 01 46:05:45

Код:

REM GENRE Metal
REM DATE 1994
REM DISCID 700AC409
REM COMMENT ExactAudioCopy v1.1
PERFORMER "Fight"
TITLE "Mutations"
FILE "Fight - Mutations.flac" WAVE
  TRACK 01 AUDIO
    TITLE "Into The Pit (Live)"
    INDEX 01 00:00:00
  TRACK 02 AUDIO
    TITLE "Nailed To The Gun (Live)"
    INDEX 00 04:09:18
    INDEX 01 04:10:73
  TRACK 03 AUDIO
    TITLE "Freewheel Burning (Live)"
    INDEX 00 07:44:00
    INDEX 01 07:45:63
  TRACK 04 AUDIO
    TITLE "Little Crazy (Live)"
    INDEX 00 12:19:45
    INDEX 01 12:30:65
  TRACK 05 AUDIO
    TITLE "War Of Words (Bloody Tongue Mix)"
    INDEX 01 17:27:58
  TRACK 06 AUDIO
    TITLE "Kill It (Dutch Death Mix)"
    INDEX 01 24:14:70
  TRACK 07 AUDIO
    TITLE "Vicious (Middle Finger Mix)"
    INDEX 01 28:05:65
  TRACK 08 AUDIO
    TITLE "Immortal Sin (Tolerance Mix)"
    INDEX 01 34:11:48
  TRACK 09 AUDIO
    TITLE "Little Crazy (Straight Jacket Mix)"
    INDEX 01 40:00:72

Код:

REM GENRE Metal
REM DATE 1995
REM DISCID 830CD30A
REM COMMENT ExactAudioCopy v1.1
PERFORMER "Fight"
TITLE "Small Deadly Space"
FILE "Fight - Small Deadly Space.flac" WAVE
  TRACK 01 AUDIO
    TITLE "I Am Alive"
    INDEX 01 00:00:00
  TRACK 02 AUDIO
    TITLE "Mouthpiece"
    INDEX 00 04:56:24
    INDEX 01 04:56:37
  TRACK 03 AUDIO
    TITLE "Legacy Of Hate"
    INDEX 00 08:17:50
    INDEX 01 08:18:70
  TRACK 04 AUDIO
    TITLE "Blowout In The Radio Room"
    INDEX 00 12:52:45
    INDEX 01 12:53:07
  TRACK 05 AUDIO
    TITLE "Never Again"
    INDEX 00 17:03:48
    INDEX 01 17:03:50
  TRACK 06 AUDIO
    TITLE "Small Deadly Space"
    INDEX 00 20:54:35
    INDEX 01 20:54:67
  TRACK 07 AUDIO
    TITLE "Gretna Greene"
    INDEX 00 26:13:30
    INDEX 01 26:14:30
  TRACK 08 AUDIO
    TITLE "Beneath The Violence"
    INDEX 01 30:07:17
  TRACK 09 AUDIO
    TITLE "Human Crate"
    INDEX 00 34:49:32
    INDEX 01 34:50:42
  TRACK 10 AUDIO
    TITLE "In A World Of My Own Making"
    INDEX 00 40:58:65
    INDEX 01 41:00:22

Код:

REM GENRE Metal
REM DATE 1998
REM DISCID 8B0AEC0B
REM COMMENT ExactAudioCopy v1.1
PERFORMER "Two"
TITLE "Voyeurs"
FILE "Two - Voyeurs.flac" WAVE
  TRACK 01 AUDIO
    TITLE "I Am a Pig"
    INDEX 01 00:00:00
  TRACK 02 AUDIO
    TITLE "Stutter Kiss"
    INDEX 00 03:35:42
    INDEX 01 03:36:65
  TRACK 03 AUDIO
    TITLE "Water's Leaking"
    INDEX 01 08:07:50
  TRACK 04 AUDIO
    TITLE "My Ceiling's Low"
    INDEX 00 12:00:32
    INDEX 01 12:01:62
  TRACK 05 AUDIO
    TITLE "Leave Me Alone"
    INDEX 01 15:36:42
  TRACK 06 AUDIO
    TITLE "If"
    INDEX 01 20:08:02
  TRACK 07 AUDIO
    TITLE "Deep In The Ground"
    INDEX 00 25:11:35
    INDEX 01 25:14:25
  TRACK 08 AUDIO
    TITLE "Hey, Sha La La"
    INDEX 01 30:27:17
  TRACK 09 AUDIO
    TITLE "Wake Up"
    INDEX 01 34:49:72
  TRACK 10 AUDIO
    TITLE "Gimp"
    INDEX 01 38:22:42
  TRACK 11 AUDIO
    TITLE "Bed of Rust"
    INDEX 01 42:04:27

Код:

REM GENRE Heavy Metal
REM DATE 2000
REM DISCID 8E0B650C
REM COMMENT ExactAudioCopy v1.1
PERFORMER "Halford"
TITLE "Resurrection"
FILE "Halford - Resurrection.flac" WAVE
  TRACK 01 AUDIO
    TITLE "Resurrection"
    INDEX 01 00:00:00
  TRACK 02 AUDIO
    TITLE "Made In Hell"
    INDEX 01 03:58:00
  TRACK 03 AUDIO
    TITLE "Locked And Loaded"
    INDEX 01 08:10:05
  TRACK 04 AUDIO
    TITLE "Night Fall"
    INDEX 01 11:29:00
  TRACK 05 AUDIO
    TITLE "Silent Screams"
    INDEX 01 15:10:02
  TRACK 06 AUDIO
    TITLE "The One You Love To Hate"
    INDEX 01 22:16:47
  TRACK 07 AUDIO
    TITLE "Cyberworld"
    INDEX 01 25:28:12
  TRACK 08 AUDIO
    TITLE "Slow Down"
    INDEX 01 28:37:00
  TRACK 09 AUDIO
    TITLE "Twist"
    INDEX 01 33:28:12
  TRACK 10 AUDIO
    TITLE "Temptation"
    INDEX 01 37:37:07
  TRACK 11 AUDIO
    TITLE "Drive"
    INDEX 01 41:09:15
  TRACK 12 AUDIO
    TITLE "Saviour"
    INDEX 01 45:39:55

Код:

REM GENRE Heavy Metal
REM DATE 2009
REM DISCID E90ECF0F
REM COMMENT ExactAudioCopy v1.1
PERFORMER "Halford"
TITLE "Live Insurrection CD1"
FILE "Halford - Live Insurrection CD1.flac" WAVE
  TRACK 01 AUDIO
    TITLE "Resurrection"
    INDEX 01 00:00:00
  TRACK 02 AUDIO
    TITLE "Made In Hell"
    INDEX 01 04:02:23
  TRACK 03 AUDIO
    TITLE "Into The Pit"
    INDEX 01 08:15:61
  TRACK 04 AUDIO
    TITLE "Nailed To The Gun"
    INDEX 01 12:30:38
  TRACK 05 AUDIO
    TITLE "Light Comes Out Of Black"
    INDEX 01 16:08:58
  TRACK 06 AUDIO
    TITLE "Stained Class"
    INDEX 01 21:16:52
  TRACK 07 AUDIO
    TITLE "Jawbreaker"
    INDEX 01 26:49:63
  TRACK 08 AUDIO
    TITLE "Running Wild"
    INDEX 01 30:15:11
  TRACK 09 AUDIO
    TITLE "Slow Down"
    INDEX 01 33:17:04
  TRACK 10 AUDIO
    TITLE "The One You Love To Hate"
    INDEX 01 38:01:13
  TRACK 11 AUDIO
    TITLE "Life In Black"
    INDEX 01 41:11:40
  TRACK 12 AUDIO
    TITLE "Hell's Last Survivor"
    INDEX 01 45:37:40
  TRACK 13 AUDIO
    TITLE "Sad Wings"
    INDEX 01 49:06:08
  TRACK 14 AUDIO
    TITLE "Savior"
    INDEX 01 52:39:51
  TRACK 15 AUDIO
    TITLE "Silent Screams"
    INDEX 01 55:41:59

Код:

REM GENRE Heavy Metal
REM DATE 2009
REM DISCID B70CC20D
REM COMMENT ExactAudioCopy v1.1
PERFORMER "Halford"
TITLE "Live Insurrection CD2"
FILE "Halford - Live Insurrection CD2.flac" WAVE
  TRACK 01 AUDIO
    TITLE "Cyber World"
    INDEX 01 00:00:00
  TRACK 02 AUDIO
    TITLE "Hellion"
    INDEX 01 03:06:00
  TRACK 03 AUDIO
    TITLE "Electric Eye"
    INDEX 01 03:54:08
  TRACK 04 AUDIO
    TITLE "Riding On The Wind"
    INDEX 01 07:23:58
  TRACK 05 AUDIO
    TITLE "Genocide"
    INDEX 01 10:34:38
  TRACK 06 AUDIO
    TITLE "Beyond The Realms Of Death"
    INDEX 01 18:11:55
  TRACK 07 AUDIO
    TITLE "Metal Gods"
    INDEX 01 25:00:70
  TRACK 08 AUDIO
    TITLE "Breaking The Law"
    INDEX 01 29:36:15
  TRACK 09 AUDIO
    TITLE "Blackout"
    INDEX 01 33:29:09
  TRACK 10 AUDIO
    TITLE "Tyrant"
    INDEX 01 37:47:68
  TRACK 11 AUDIO
    TITLE "Screaming In The Dark"
    INDEX 01 42:18:44
  TRACK 12 AUDIO
    TITLE "Heart Of A Lion"
    INDEX 01 45:57:70
  TRACK 13 AUDIO
    TITLE "Prisoner Of Your Eyes"
    INDEX 01 49:52:39

Код:

REM GENRE Metal
REM DATE 2002
REM DISCID E60E1010
REM COMMENT ExactAudioCopy v1.1
PERFORMER "Halford"
TITLE "Crucible"
FILE "Halford - Crucible.flac" WAVE
  TRACK 01 AUDIO
    TITLE "Betrayal"
    INDEX 01 00:00:00
  TRACK 02 AUDIO
    TITLE "One Will"
    INDEX 01 03:04:14
  TRACK 03 AUDIO
    TITLE "Hearts Of Darkness"
    INDEX 01 06:36:15
  TRACK 04 AUDIO
    TITLE "Golgotha"
    INDEX 01 10:28:05
  TRACK 05 AUDIO
    TITLE "Handing Out Bullets"
    INDEX 01 14:51:31
  TRACK 06 AUDIO
    TITLE "Crystal"
    INDEX 01 18:07:24
  TRACK 07 AUDIO
    TITLE "Fugitive"
    INDEX 01 22:54:39
  TRACK 08 AUDIO
    TITLE "Wrath Of God"
    INDEX 01 26:56:04
  TRACK 09 AUDIO
    TITLE "In The Morning"
    INDEX 01 30:08:05
  TRACK 10 AUDIO
    TITLE "Rock The World Forever"
    INDEX 01 32:29:55
  TRACK 11 AUDIO
    TITLE "Crucible"
    INDEX 01 35:41:10
  TRACK 12 AUDIO
    TITLE "Heretic"
    INDEX 01 40:19:28
  TRACK 13 AUDIO
    TITLE "She"
    INDEX 01 44:12:73
  TRACK 14 AUDIO
    TITLE "Weaving Sorrow"
    INDEX 01 48:17:02
  TRACK 15 AUDIO
    TITLE "Sun"
    INDEX 01 51:44:49
  TRACK 16 AUDIO
    TITLE "Trail Of Tears"
    INDEX 01 55:32:63

Код:

REM GENRE Metal
REM DATE 2010
REM DISCID B80D780D
REM COMMENT ExactAudioCopy v1.1
PERFORMER "Halford"
TITLE "Live In Anaheim CD1"
FILE "Halford - Live In Anaheim CD1.flac" WAVE
  TRACK 01 AUDIO
    TITLE "Painkiller"
    INDEX 01 00:00:00
  TRACK 02 AUDIO
    TITLE "Rapid Fire"
    INDEX 01 06:09:69
  TRACK 03 AUDIO
    TITLE "Heretic"
    INDEX 01 10:15:09
  TRACK 04 AUDIO
    TITLE "Resurrection"
    INDEX 01 15:22:69
  TRACK 05 AUDIO
    TITLE "Made In Hell"
    INDEX 01 18:40:08
  TRACK 06 AUDIO
    TITLE "Golgotha"
    INDEX 01 23:03:19
  TRACK 07 AUDIO
    TITLE "Into The Pit"
    INDEX 01 27:35:65
  TRACK 08 AUDIO
    TITLE "Light Comes Out of Black"
    INDEX 01 31:33:47
  TRACK 09 AUDIO
    TITLE "White Heat Red Hot"
    INDEX 01 37:52:39
  TRACK 10 AUDIO
    TITLE "Never Satisfied"
    INDEX 01 42:17:38
  TRACK 11 AUDIO
    TITLE "Breaking The Law"
    INDEX 01 48:00:01
  TRACK 12 AUDIO
    TITLE "Hearts Of Darkness"
    INDEX 01 50:18:14
  TRACK 13 AUDIO
    TITLE "Handing Out Bullets"
    INDEX 01 54:07:30

Код:

REM GENRE Metal
REM DATE 2010
REM DISCID 770AD40A
REM COMMENT ExactAudioCopy v1.1
PERFORMER "Halford"
TITLE "Live In Anaheim CD2"
FILE "Halford - Live In Anaheim CD2.flac" WAVE
  TRACK 01 AUDIO
    TITLE "Diamonds And Rust"
    INDEX 01 00:00:00
  TRACK 02 AUDIO
    TITLE "Hellion"
    INDEX 01 03:36:28
  TRACK 03 AUDIO
    TITLE "Electric Eye"
    INDEX 01 04:19:54
  TRACK 04 AUDIO
    TITLE "Riding On The Wind"
    INDEX 01 07:50:45
  TRACK 05 AUDIO
    TITLE "Victim Of Changes"
    INDEX 01 12:09:71
  TRACK 06 AUDIO
    TITLE "You've Got Another Thing Comin'"
    INDEX 01 22:19:32
  TRACK 07 AUDIO
    TITLE "Heretic (Live In Japan)"
    INDEX 01 30:40:02
  TRACK 08 AUDIO
    TITLE "Sun (Live In Japan)"
    INDEX 01 34:31:50
  TRACK 09 AUDIO
    TITLE "Golgotha (Live In Japan)"
    INDEX 01 38:04:14
  TRACK 10 AUDIO
    TITLE "One Will (Live In Japan)"
    INDEX 01 42:35:49

Код:

REM GENRE Heavy Metal
REM DATE 2009
REM DISCID 8909B60A
REM COMMENT ExactAudioCopy v1.1
PERFORMER "Halford"
TITLE "Halford 3: Winter Songs"
FILE "Halford - Halford 3- Winter Songs.flac" WAVE
  TRACK 01 AUDIO
    TITLE "Get Into The Spirit"
    INDEX 01 00:00:00
  TRACK 02 AUDIO
    TITLE "We Three Kings"
    INDEX 01 05:26:02
  TRACK 03 AUDIO
    TITLE "Oh Come O Come Emmanuel"
    INDEX 00 09:31:73
    INDEX 01 09:32:73
  TRACK 04 AUDIO
    TITLE "Winter Song"
    INDEX 00 14:09:74
    INDEX 01 14:10:74
  TRACK 05 AUDIO
    TITLE "What Child Is This"
    INDEX 00 19:48:01
    INDEX 01 19:49:01
  TRACK 06 AUDIO
    TITLE "Christmas For Everyone"
    INDEX 00 24:15:03
    INDEX 01 24:16:03
  TRACK 07 AUDIO
    TITLE "I Don't Care If It's Christmas Night"
    INDEX 00 27:21:74
    INDEX 01 27:22:73
  TRACK 08 AUDIO
    TITLE "Light Of The World"
    INDEX 00 30:36:20
    INDEX 01 30:37:17
  TRACK 09 AUDIO
    TITLE "Oh Holy Night"
    INDEX 00 34:50:00
    INDEX 01 34:51:00
  TRACK 10 AUDIO
    TITLE "Come All Ye Faithful"
    INDEX 00 38:59:25
    INDEX 01 39:00:25

Код:

REM GENRE Metal
REM DATE 2010
REM DISCID D20EB70E
REM COMMENT ExactAudioCopy v1.1
PERFORMER "Halford"
TITLE "Halford IV - Made Of Metal"
FILE "Halford - Halford IV - Made Of Metal.flac" WAVE
  TRACK 01 AUDIO
    TITLE "Undisputed"
    INDEX 01 00:00:00
  TRACK 02 AUDIO
    TITLE "Fire And Ice"
    INDEX 01 05:16:54
  TRACK 03 AUDIO
    TITLE "Made Of Metal"
    INDEX 01 08:09:06
  TRACK 04 AUDIO
    TITLE "Speed Of Sound"
    INDEX 01 12:10:07
  TRACK 05 AUDIO
    TITLE "Like Theres No Tomorrow"
    INDEX 01 16:42:00
  TRACK 06 AUDIO
    TITLE "Till The Day I Die"
    INDEX 01 21:02:13
  TRACK 07 AUDIO
    TITLE "We Own The Night"
    INDEX 01 24:52:32
  TRACK 08 AUDIO
    TITLE "Heartless"
    INDEX 01 28:46:38
  TRACK 09 AUDIO
    TITLE "Hell Razor"
    INDEX 01 32:24:33
  TRACK 10 AUDIO
    TITLE "Thunder And Lightning"
    INDEX 01 36:08:63
  TRACK 11 AUDIO
    TITLE "Twenty Five Years"
    INDEX 01 41:36:39
  TRACK 12 AUDIO
    TITLE "Matador"
    INDEX 01 48:37:14
  TRACK 13 AUDIO
    TITLE "I Know We Stand A Chance"
    INDEX 01 54:16:23
  TRACK 14 AUDIO
    TITLE "The Mower"
    INDEX 01 58:07:51

Код:

REM GENRE Metal
REM DATE 2011
REM DISCID F70E460F
REM COMMENT ExactAudioCopy v1.1
PERFORMER "Halford"
TITLE "Live At Saitama Super Arena"
FILE "Halford - Live At Saitama Super Arena.flac" WAVE
  TRACK 01 AUDIO
    TITLE "Resurrection"
    INDEX 01 00:00:00
  TRACK 02 AUDIO
    TITLE "Made In Hell"
    INDEX 01 03:42:73
  TRACK 03 AUDIO
    TITLE "Locked And Loaded"
    INDEX 01 08:02:72
  TRACK 04 AUDIO
    TITLE "Drop Out"
    INDEX 01 11:27:36
  TRACK 05 AUDIO
    TITLE "Made Of Metal"
    INDEX 01 15:23:19
  TRACK 06 AUDIO
    TITLE "Undisputed"
    INDEX 01 19:27:59
  TRACK 07 AUDIO
    TITLE "Nailed To The Gun"
    INDEX 01 24:47:49
  TRACK 08 AUDIO
    TITLE "Golgotha"
    INDEX 01 28:28:22
  TRACK 09 AUDIO
    TITLE "Fire And Ice"
    INDEX 01 32:55:15
  TRACK 10 AUDIO
    TITLE "Green Manalishi With The Two-Pronged Crown"
    INDEX 01 35:58:22
  TRACK 11 AUDIO
    TITLE "Diamonds And Rust"
    INDEX 01 39:17:13
  TRACK 12 AUDIO
    TITLE "Jawbreaker"
    INDEX 01 42:50:44
  TRACK 13 AUDIO
    TITLE "Cyber World"
    INDEX 01 46:32:04
  TRACK 14 AUDIO
    TITLE "Like There's No Tomorrow"
    INDEX 01 49:44:50
  TRACK 15 AUDIO
    TITLE "Thunder And Lightning"
    INDEX 01 54:17:21










pb.wtf



Скачать Rob Halford - The Complete Albums Collection через торрент https://i111.fastpic.ru/big/2019/1129/48/f6fe79cc48aa85011218708eace92148.png Скачать фильм Rob Halford - The Complete Albums Collection через торрент бесплантно в хорошем качестве ... 10 10 1
Info! Золотая раздача, скачанное не засчитывается.
Торрент: Зарегистрирован [2019-11-30 09:28] · скачан: 5 раз
Статус: √ проверено
Размер: 5.51 GB
Как cкачать? Как скачать Rob Halford - The Complete Albums Collection через торрент | qTorrent

28-11-2019 20:33  

Отключить всю рекламу на сайте

    Дорогой пользователь! Огромная просьба, поблагодарите релизера, оцените раздачу и оставьте свои комментарий, если Вы скачали Rob Halford - The Complete Albums Collection через торрент бесплатно! Внесите свою лепту в развитие PiratBit!
    Комментировать посты могут только пользователи прошедшие не сложную регистрацию
    Показать сообщения:    

    Rob Halford - The Complete Albums Collection через торрент
    Скачать бесплатно Rob Halford - The Complete Albums Collection
    Rob Halford - The Complete Albums Collection скачать торрент
    Rob Halford - The Complete Albums Collection смотреть онлайн
    Cкачать фильм Rob Halford - The Complete Albums Collection бесплатно
    Rob Halford - The Complete Albums Collection скачать торрент в хорошем качестве
    Rob Halford - The Complete Albums Collection смотреть онлайн бесплатно в хорошем качестве


    Вы не можете начинать темы
    Вы не можете отвечать на сообщения
    Вы не можете редактировать свои сообщения
    Вы не можете удалять свои сообщения
    Вы не можете голосовать в опросах
    Вы не можете прикреплять файлы к сообщениям
    Вы можете скачивать файлы