Ссылка на приватное зеркало всего за 1$. Внимание количество ограничено!!!

OK

1+1

iTunes

мы

OK

1

WEB-DLRip

Джокер

Пифагор

Ведьмак / The Witcher сериал

iTunes

ПШазам

ОК

Оно 2

iTunes

30
pack

Вам бонус

ВАЖНО

!!Акция!!

Alien_RageХит недели

RePack

Resident Evil 21

ИГРА 18+

pack

RePack

jed

RePack

fifa19

RePack

Assassins Creed: Odyssey

RePack

NEED FOR SPEED™ PAYBACK

4 сезон

9 сезон

Бесстыжие 9 сезон

Все сериалы

все сериалы на PB.wtf

RePack

FAR CRY 5
  

Текст (Клим Шипенко) [2019, драма, триллер, WEBRip] pb.wtf

Текст через торрент pb.wtf

Раздают: 55 [ 13 KB/s ]
Размер: 1.46 GB | Добавлен: 1 мес. 24 д. назад | Торрент скачан:1747 раз
Скачать  

30-11-2019 16:35 Текст Скачать торрент  

Текст

Год выпуска: 2019
Страна: Россия
Жанр: драма, триллер
Продолжительность: 02:11:30
Перевод: Не требуется [Русский]
Примечание: Присутствует ненормативная лексика и сцены с обнаженной натурой!
Режиссер: Клим Шипенко
В ролях:

Александр Петров (Илья Горюнов), Кристина Асмус (Нина), Иван Янковский (Пётр Хазин), Софья Озерова (Вера), Максим Виноградов (Серёга), Виталий Хаев (Денис Сергеевич), Дмитрий Глуховский (пассажир в метро), Кирилл Нагиев (Гоша), Елена Финогеева
Описание:
Главный герой - 27-летний Илья Горюнов, семь лет отсидевший в тюрьме по ложному обвинению в распространении наркотиков. Когда Илья выходит на свободу, он понимает, что прежняя жизнь, по которой он тосковал, разрушена, и вернуться к ней он больше не сможет. Хотя он не собирался мстить человеку, который отправил его в тюрьму, другого выхода теперь нет. Встретившись лицом к лицу со своим обидчиком, Илья совершает необдуманный поступок, после которого главный герой получает доступ к смартфону Петра, а с ним и к жизни молодого человека - его фотографиям и видео, перепискам с родителями и девушкой Ниной, к странным, полным недомолвок и угроз переговорам с коллегами. На время Илья становится для всех Петром - через текст на экране телефона.
Рейтинг:

Возраст: 18+ (зрителям, достигшим 18 лет. запрещено для детей)
Качество: WEBRip
Формат: AVI
Видео: XviD, 720x272 (2.647), 1324 kbps, 25 fps, 0,271 bpp
Аудио: AC3 / 2.0 / 48 kHz / 192 kbps /
Сэмпл
General
Complete name : D:\T3kCt.2O19.O.WEBRip.1.46Gb.avi
Format : AVI
Format/Info : Audio Video Interleave
File size : 1.46 GiB
Duration : 2 h 11 min
Overall bit rate : 1 588 kb/s
Movie name : T
Writing application : V
Original source form/Name : M

Video
ID : 0
Format : MPEG-4 Visual
Format profile : Advanced Simple@L5
Format settings, BVOP : 2
Format settings, QPel : No
Format settings, GMC : No warppoints
Format settings, Matrix : Default (MPEG)
Codec ID : XVID
Codec ID/Hint : XviD
Duration : 2 h 11 min
Bit rate : 1 324 kb/s
Width : 720 pixels
Height : 272 pixels
Display aspect ratio : 2.647
Frame rate : 25.000 FPS
Color space : YUV
Chroma subsampling : 4:2:0
Bit depth : 8 bits
Scan type : Progressive
Compression mode : Lossy
Bits/(Pixel*Frame) : 0.271
Stream size : 1.22 GiB (83%)
Writing library : XviD 1.2.1 (UTC 2008-12-04)

Audio
ID : 1
Format : AC-3
Format/Info : Audio Coding 3
Mode extension : CM (complete main)
Format settings, Endianness : Big
Codec ID : 2000
Duration : 2 h 11 min
Bit rate mode : Constant
Bit rate : 192 kb/s
Channel(s) : 2 channels
Channel positions : Front: L R
Sampling rate : 48.0 kHz
Frame rate : 31.250 FPS (1536 spf)
Compression mode : Lossy
Stream size : 181 MiB (12%)
Alignment : Split accross interleaves
скриншот   скриншот   скриншот   скриншот  
pb.wtf



Скачать Текст через торрент http://pic1.kartinco.top/images/12/54hwe.jpg Скачать фильм Текст через торрент бесплантно в хорошем качестве Описание: Главный герой - 27-летний Илья Горюнов, семь лет отсидевший в тюрьме по ложному обвинению в распространении наркотиков. Когда ... 10 10 43
Info! Золотая раздача, скачанное не засчитывается.
Торрент: Зарегистрирован [2019-11-30 16:35] · скачан: 1 747 раз
Статус: ∑ поглощено
Размер: 1.46 GB
Как cкачать? Как скачать Текст через торрент | qTorrent

% Раздел Тема Автор DL S | L
Фантастика, фентези, мистика, ужасы [ 34 MB ] Азимов Айзек - Азимов Айзек - подборка книг [Обычный текст] Vladimir_73 Скачать
1 | 1
Фантастика, фентези, мистика, ужасы [ 3 MB ] Андрей Круз - Трилогия"Эпоха мёртвых" [Обычный текст] Anonymous Скачать
1 | 0
Фильмы 2012 [ 1.45 GB ] Третий лишний / Ted [2012 BDRip VO )] / UNRATED Userman4ik Скачать
1 | 0
Русификаторы [ 7.49 GB ] Call of Duty: Modern Warfare 3 [Текст + Звук] 2011 PC / Русификатор 2011] ElectroVamp Скачать
1 | 0
XBox360 [ 8.14 GB ] [XBOX 360]Medal of Honor Warfighter [Multiplayer Only]+ HD текстуры 2012[PAL][RUSSOUND][LT+ v3.0] samuel Скачать
1 | 0
Русификаторы [ 190 MB ] Русификатор Fallout: New Vegas [ТекстПрофес​сиональный] =Чувак= Скачать
1 | 0
Русификаторы [ 5 MB ] Русификатор для Kingdoms Of Amalur: Reckoning ) [1.0] SEYTER Скачать
1 | 0

28-11-2019 20:33  

Отключить всю рекламу на сайте

11-12-2019 06:04 Текст Скачать торрент  

Посмотрел - ничего не приобрёл. Не посмотрел - ничего не потерял.pb.wtf



17-12-2019 21:18 Текст Скачать торрент  

Топик был перенесен из форума Наши новые фильмы 2018-2019 в форум Для поглощённых раздач

Причина переноса: Текст
bober100pb.wtf



    Дорогой пользователь! Огромная просьба, поблагодарите релизера, оцените раздачу и оставьте свои комментарий, если Вы скачали Текст через торрент бесплатно! Внесите свою лепту в развитие PiratBit!
    Комментировать посты могут только пользователи прошедшие не сложную регистрацию
    Показать сообщения:    

    Текст через торрент
    Скачать бесплатно Текст
    Текст скачать торрент
    Текст смотреть онлайн
    Cкачать фильм Текст бесплатно
    Текст скачать торрент в хорошем качестве
    Текст смотреть онлайн бесплатно в хорошем качестве


    Вы не можете начинать темы
    Вы не можете отвечать на сообщения
    Вы не можете редактировать свои сообщения
    Вы не можете удалять свои сообщения
    Вы не можете голосовать в опросах
    Вы не можете прикреплять файлы к сообщениям
    Вы можете скачивать файлы