Ссылка на приватное зеркало нашего сайта всего за 1$. Внимание количество ограничено!!!

2 сезон

iTunes

1 сезон

1

2 сезон

2 сезон

iTunes

1 сезон

RePack

30

Новинка

ВАЖНО

ИГРА 18+

pack

RePack

MK11
pack

Забери бонус

RePack

jed

!!Акция!!

Alien_Rage

RePack

fifa19

RePack

Assassins Creed: Odyssey

RePack

NEED FOR SPEED™ PAYBACK

4 сезон

9 сезон

Бесстыжие 9 сезон

Все сериалы

все сериалы на PB.wtf

RePack

FAR CRY 5
  

Ибица / Ibiza (Арно Лемор) [2019, комедия, BD Remux 1080p] DUB [iTunes] pb.wtf

Ибица через торрент pb.wtf

Размер: 21.02 GB | Добавлен: 11 мес. назад | Торрент скачан:16 раз
Скачать  

01-12-2019 05:45 Ибица Скачать торрент  

Ибица / Ibiza
Год выпуска: 2019
Страна: Франция, Бельгия
Студия: Atelier de Production, Gaumont, France 2 Cinéma
Жанр: комедия
Продолжительность: 01:26:01
Перевод: Дублированный | iTunes
Субтитры: отсутствуют

Режиссер: Арно Лемор

rating

В ролях: Кристиан Клавье, Халид Самата, Матильда Сенье, Леопольд Бухсбаум, Пили Груан, Джои Старр, Оливье Маршаль, Фредерик Бель, Луи-До де Ланкесэ, Виктор Уэртас

Описание: Консервативный доктор-ортопед Филипп пытается расположить к себе двух детей-подростков своей новой возлюбленной. Он решает провести вместе с ними семейный отпуск у моря, и молодежь выбирает Ибицу, где любителю тихого отдыха придется непросто.

Качество: BD Remux 1080p
Формат: MKV

Видео: MPEG-4 AVC, 1920x1080, 31.6 Mbit/s, 24 fps
Аудио #01: 48 kHz, AC3, 5.1, 384 Kbps | iTunes | RUS |
Аудио #02: 48 kHz, DTS-HD MA, 5.1, 3014 Kbps | Оригинал | FRE |
скриншот  скриншот  скриншот  скриншот  скриншот  

General
Unique ID : 39004865497634500509156749291160505535 (0x1D5810581261C2C10E72932A5EBE8CBF)
Complete name : F:Video111Ibiza.2019.BDREMUX.1080p.seleZen.mkv
Format : Matroska
Format version : Version 4
File size : 21.0 GiB
Duration : 1 h 26 min
Overall bit rate mode : Variable
Overall bit rate : 35.0 Mb/s
Movie name : Ibiza 2019 from селезень
Encoded date : UTC 2019-11-30 12:11:43
Writing application : mkvmerge v40.0.0 ('Old Town Road + Pony') 64-bit
Writing library : libebml v1.3.9 + libmatroska v1.5.2

Video
ID : 1
Format : AVC
Format/Info : Advanced Video Codec
Format profile : High@L4.1
Format settings : CABAC / 4 Ref Frames
Format settings, CABAC : Yes
Format settings, Reference : 4 frames
Format settings, GOP : M=3, N=24
Codec ID : V_MPEG4/ISO/AVC
Duration : 1 h 26 min
Bit rate mode : Variable
Bit rate : 31.6 Mb/s
Maximum bit rate : 35.0 Mb/s
Width : 1 920 pixels
Height : 1 080 pixels
Display aspect ratio : 16:9
Frame rate mode : Constant
Frame rate : 24.000 FPS
Standard : NTSC
Color space : YUV
Chroma subsampling : 4:2:0
Bit depth : 8 bits
Scan type : Progressive
Bits/(Pixel*Frame) : 0.634
Stream size : 19.0 GiB (90%)
Language : French
Default : Yes
Forced : No
Color range : Limited
Color primaries : BT.709
Transfer characteristics : BT.709
Matrix coefficients : BT.709

Audio #1
ID : 2
Format : AC-3
Format/Info : Audio Coding 3
Commercial name : Dolby Digital
Codec ID : A_AC3
Duration : 1 h 26 min
Bit rate mode : Constant
Bit rate : 384 kb/s
Channel(s) : 6 channels
Channel layout : L R C LFE Ls Rs
Sampling rate : 48.0 kHz
Frame rate : 31.250 FPS (1536 SPF)
Bit depth : 16 bits
Compression mode : Lossy
Stream size : 236 MiB (1%)
Title : iTunes
Language : Russian
Service kind : Complete Main
Default : Yes
Forced : Yes

Audio #2
ID : 3
Format : DTS XLL
Format/Info : Digital Theater Systems
Commercial name : DTS-HD Master Audio
Codec ID : A_DTS
Duration : 1 h 26 min
Bit rate mode : Variable
Bit rate : 3 014 kb/s
Channel(s) : 6 channels
Channel layout : C L R Ls Rs LFE
Sampling rate : 48.0 kHz
Frame rate : 93.750 FPS (512 SPF)
Bit depth : 24 bits
Compression mode : Lossless
Stream size : 1.81 GiB (9%)
Title : Original
Language : French
Default : No
Forced : No

Menu
00:00:00.000 : en:Глава 01
00:06:39.792 : en:Глава 02
00:14:23.958 : en:Глава 03
00:20:40.958 : en:Глава 04
00:26:57.042 : en:Глава 05
00:32:19.625 : en:Глава 06
00:39:51.292 : en:Глава 07
00:47:00.292 : en:Глава 08
00:54:41.000 : en:Глава 09
01:01:33.500 : en:Глава 10
01:09:16.250 : en:Глава 11
01:16:26.500 : en:Глава 12

pb.wtf



Скачать Ибица через торрент https://i111.fastpic.ru/big/2019/1201/9b/f0376aaebb9b1d3b966641115011b49b.jpg Скачать фильм Ибица через торрент бесплантно в хорошем качестве Описание: Консервативный доктор-ортопед Филипп пытается расположить к себе двух детей-подростков своей новой возлюбленной. Он решает ... 10 10 2
Торрент: Зарегистрирован [2019-12-01 05:45] · скачан: 16 раз
Статус: √ проверено
Размер: 21.02 GB
Как cкачать? Как скачать Ибица через торрент | qTorrent

% Раздел Тема Автор DL S | L
Фильмы [HD 720p, 1080p] (Хороший звук DUB, MVO) [ 7.68 GB ] Ибица / Ibiza [2019 BDRip 1080p] bober100 Скачать
1 | 0
Фильмы 2019-2020 [DVDrip, WEB-DLRip, HDrip] (DUB, MVO) [ 1.42 GB ] Ибица / Ibiza [2019 BDRip] - Twi7ter Скачать
9 | 0
Фильмы 2019-2020 [DVDrip, WEB-DLRip, HDrip] (DUB, MVO) [ 1.42 GB ] Ибица / Ibiza [2019 BDRip] bober100 Скачать
3 | 0
Фильмы (WEB-DL 720p, 1080p) [ 3.05 GB ] Ибица / Ibiza [2019 WEB-DL 1080p] bober100 Скачать
1 | 0
Фильмы (WEB-DL 720p, 1080p) [ 2.66 GB ] Ибица / Ibiza [2019 WEB-DL 720p] bober100 Скачать
2 | 0
Порно фильмы HD [ 8.03 GB ] Анальные Омара на Ибице / Private Specials 79: Omar's Anal Adventures In Ibiza [2013 All Sex Anal. WEB-DL 1080p Оригинал] nn99nn Скачать
1 | 0
Порно фильмы с сюжетом [ 749 MB ] Поездка на Ибицу 1 / Cumming to Ibiza 1 [1995 Feature Foreign Straight Oral All Sex VHSRip 368p] sheker187 Скачать
2 | 0

28-11-2019 20:33  

Отключить всю рекламу на сайте

    Дорогой пользователь! Огромная просьба, поблагодарите релизера, оцените раздачу и оставьте свои комментарий, если Вы скачали Ибица через торрент бесплатно! Внесите свою лепту в развитие PiratBit!
    Комментировать посты могут только пользователи прошедшие не сложную регистрацию
    Показать сообщения:    

    Ибица через торрент
    Скачать бесплатно Ибица
    Ибица скачать торрент
    Ибица смотреть онлайн
    Cкачать фильм Ибица бесплатно
    Ибица скачать торрент в хорошем качестве
    Ибица смотреть онлайн бесплатно в хорошем качестве


    Вы не можете начинать темы
    Вы не можете отвечать на сообщения
    Вы не можете редактировать свои сообщения
    Вы не можете удалять свои сообщения
    Вы не можете голосовать в опросах
    Вы не можете прикреплять файлы к сообщениям
    Вы можете скачивать файлы