Ссылка на приватное зеркало нашего сайта всего за 1$. Внимание количество ограничено!!!

2 сезон

iTunes

1 сезон

1

iTunes

iTunes

iTunes

1 сезон

RePack

30

ИГРА 18+

pack

ВАЖНО

!!Акция!!

Alien_RageХит недели

RePack

MK11
pack

Забери бонус

RePack

jed

!!Акция!!

Alien_Rage

RePack

fifa19

RePack

Assassins Creed: Odyssey

RePack

NEED FOR SPEED™ PAYBACK

4 сезон

9 сезон

Бесстыжие 9 сезон

Все сериалы

все сериалы на PB.wtf

RePack

FAR CRY 5
  

Бархатный сезон / Серии: 1-4 их 4 (Леонид Пляскин) [2019, Мелодрама, SATRip] pb.wtf

Бархатный сезон через торрент pb.wtf

Размер: 2.3 GB | Добавлен: 10 мес. назад | Торрент скачан:48 раз
Скачать  

01-12-2019 12:03 Бархатный сезон Скачать торрент  

Бархатный сезон Год выпуска: 2019
Страна: Россия
Жанр: Мелодрама
Продолжительность: ~ 00:44:00 серия
Субтитры: отсутствуют

Режиссер: Леонид Пляскин



В ролях: Орит Блэйзер, Станислав Бондаренко, Сергей Астахов, Жанна Эппле, Валерий Новиков, Марк Вдовин, Ольга Спиркина, Анар Халилов, Сергей Тэсслер, Анастасия Веденская, Франя Файзиева, Александрина Питиримова, Анна Ерченко, Мария Николаева (II), Гуля Аскарова, Леонид Пляскин, Николай Сороканов, Евгений Иванов (VI), Оксана Кравчук, Лаура Джугелия, Игорь Фролов, Мария Васюкова, Игорь Климов, Гюляра Нариманова

Описание: У Маши Зарецкой есть все, о чем может мечтать девушка — квартира в центре Москвы, перспективный жених — сын лучших друзей родителей, предстоящая работа светским хроникером в гламурном журнале. Есть одна проблема — Маша не уверена, что ей нужно выходить замуж за Костю и идти работать в журнал. Маша, которая только что закончила геофак МГУ, хочет поехать в экспедицию на Камчатку, ее мечта с детства — изучать тайны Мирового океана. Машины желания кажутся смешными и Косте и родителям. Поддавшись уговорам отца, Маша дает согласие на брак. Год спустя, готовясь к празднику в честь годовщины свадьбы, Маша узнает, что Костя попал в очень неприятную ситуацию и невольно подставил ее отца, крупного чиновника. Вся прежняя жизнь начинает катиться с горы. Отца обвиняют в коррупции, семья лишается многих атрибутов прежней роскошной жизни — от водителя до дачи. Маша уверена, что единственный, кто протянул ей руку помощи — Эдуард, старинный друг семьи, который пытается очаровать ее и решить все ее проблемы. Но она даже не подозревает, что ее спаситель — это человек, которого она считает своим врагом и виновником всех своих несчастий.

Качество: SATRip
Формат: AVI

Видео: XviD, 720x400, ~ 1700 Кбит/с, 0.235 bit/pixel
Аудио: МР3, 48,0 КГц, 2 ch, 192 Кбит/с
скриншот  скриншот  скриншот  скриншот  скриншот  

Общее
Полное имя : D:\Бархатный.Сезон.XviD.2019.SATRip.Kinozal-Reliz.7turza\01.Бархатный.Сезон.Kinozal-Reliz.7turza.avi
Формат : AVI
Формат/Информация : Audio Video Interleave
Размер файла : 594 Мбайт
Продолжительность : 43 м. 42 с.
Общий поток : 1899 Кбит/сек
Название фильма : S01 E01 # from 7turza #
Программа кодирования : Lavf58.29.100

Видео
Идентификатор : 0
Формат : MPEG-4 Visual
Профиль формата : Advanced Simple@L5
Настройки формата : BVOP1
Параметр BVOP формата : 1
Параметр QPel формата : Нет
Параметр GMC формата : Без точки перехода
Параметр матрицы формата : Default (H.263)
Идентификатор кодека : XVID
Идентификатор кодека/Подсказка : XviD
Продолжительность : 43 м. 42 с.
Битрейт : 1694 Кбит/сек
Ширина : 720 пикселей
Высота : 400 пикселей
Соотношение сторон : 1,85:1
Частота кадров : 25,000 кадров/сек
Цветовое пространство : YUV
Субдискретизация насыщенности : 4:2:0
Битовая глубина : 8 бит
Тип развёртки : Прогрессивная
Бит/(Пиксели*Кадры) : 0.235
Размер потока : 530 Мбайт (89%)
Библиотека кодирования : XviD 67

Аудио
Идентификатор : 1
Формат : MPEG Audio
Версия формата : Version 1
Профиль формата : Layer 3
Настройки формата : Joint stereo
Идентификатор кодека : 55
Идентификатор кодека/Подсказка : MP3
Продолжительность : 43 м. 42 с.
Вид битрейта : Постоянный
Битрейт : 192 Кбит/сек
Каналы : 2 канала
Частота : 48,0 КГц
Размер потока : 60,0 Мбайт (10%)
Выравнивание : Соединение по промежуткам
Продолжительность промежутка : 24 мс. (0,60 видеокадр)
Библиотека кодирования : LAMEªªª

pb.wtf



Скачать Бархатный сезон через торрент https://d.radikal.ru/d12/1912/8e/b3c207a9fed8.jpg Скачать фильм Бархатный сезон через торрент бесплантно в хорошем качестве Описание: У Маши Зарецкой есть все, о чем может мечтать девушка — квартира в центре Москвы, перспективный жених — сын лучших друзей ... 10 10 6
Торрент: Зарегистрирован [2019-12-01 12:03] · скачан: 48 раз
Статус: √ проверено
Размер: 2.3 GB
Как cкачать? Как скачать Бархатный сезон через торрент | qTorrent

28-11-2019 20:33  

Отключить всю рекламу на сайте

    Дорогой пользователь! Огромная просьба, поблагодарите релизера, оцените раздачу и оставьте свои комментарий, если Вы скачали Бархатный сезон через торрент бесплатно! Внесите свою лепту в развитие PiratBit!
    Комментировать посты могут только пользователи прошедшие не сложную регистрацию
    Показать сообщения:    

    Бархатный сезон через торрент
    Скачать бесплатно Бархатный сезон
    Бархатный сезон скачать торрент
    Бархатный сезон смотреть онлайн
    Cкачать фильм Бархатный сезон бесплатно
    Бархатный сезон скачать торрент в хорошем качестве
    Бархатный сезон смотреть онлайн бесплатно в хорошем качестве


    Вы не можете начинать темы
    Вы не можете отвечать на сообщения
    Вы не можете редактировать свои сообщения
    Вы не можете удалять свои сообщения
    Вы не можете голосовать в опросах
    Вы не можете прикреплять файлы к сообщениям
    Вы можете скачивать файлы