новый адрес
Ссылка на приватное зеркало всего за 1$. Внимание количество ограничено!!!

iTunes

1+1

iTunes

мы

WEB-DL

1

iTunes

Чернобыль

iTunes

Ральф против интернета

Лицензия

ПШазам

Лицензия

Оно 2

Лицензия

30
pack

Вам бонус

ВАЖНО

!!Акция!!

Alien_RageХит недели

RePack

Resident Evil 21

ИГРА 18+

pack

RePack

jed

!!Акция!!

Alien_Rage

RePack

fifa19

RePack

Assassins Creed: Odyssey

RePack

NEED FOR SPEED™ PAYBACK

3 сезон

9 сезон

Бесстыжие 9 сезон

Все сериалы

все сериалы на PB.wtf

RePack

FAR CRY 5
Ребята, катастрофически не хватает 1900р. для оплаты серверов за Октябрь (всвязи с блокировками трафик упал в 3 раза), 1-2р., выручайте.
  

Оно 2 / It Chapter Two (Андрес Мускетти) [2019, ужасы, BDRip 720p] DUB (rus, ukr) [iTunes] +MVO [HDRezka Studio] pb.wtf

Оно 2 через торрент pb.wtf

Раздают: 3 [ 45 KB/s ] Качают: 1 [ 0 KB/s ]
Размер: 6.23 GB | Добавлен: 8 д. назад | Торрент скачан:53 раза
Скачать  

01-12-2019 12:08 Оно 2 Скачать торрент  

Оно 2 / It Chapter Two
Год выпуска: 2019
Страна: Канада, США
Студия: KatzSmith Productions, Lin Pictures, New Line Cinema
Жанр: ужасы
Продолжительность: 02:49:25
Перевод:
#1: Дублированный | iTunes
#2: Профессиональный (многоголосый) | HDRezka Studio
Субтитры: Русские (Forced, 2 x full), украинские (Forced), английские

Режиссер: Андрес Мускетти

rating

В ролях:

Джессика Честейн (Beverly Marsh), Джеймс МакЭвой (Bill Denbrough), Билл Хейдер (Richie Tozier), Айзая Мустафа (Mike Hanlon), Джей Райан (Ben Hanscom), Джеймс Рэнсон (Eddie Kaspbrak), Энди Бин (Stanley Uris), Билл Скарсгард (Pennywise), Джейден Мартелл (Young Bill Denbrough), Уайатт Олефф (Young Stanley Uris), Джек Дилан Грейзер (Young Eddie Kaspbrak), Финн Вулфард (Young Richie Tozier)
Описание: Проходит 27 лет после первой встречи ребят с демоническим Пеннивайзом. Они уже выросли, и у каждого своя жизнь. Но неожиданно их спокойное существование нарушает странный телефонный звонок, который заставляет их вновь собраться вместе.

Качество: BDRip 720p
Формат: MKV

Видео: MPEG-4 AVC, 1280x536, 3659 Kbit/s, 23.976 fps
Аудио#1: 48 kHz, AC3, 5.1, 384 Kbps | Дублированный | RUS |
Аудио#2: 48 kHz, AC3, 2.0, 192 Kbps | HDRezka Studio | RUS |
Аудио#3: 48 kHz, AC3, 5.1, 384 Kbps | Дублированный | UKR |
Аудио#4: 48 kHz, AC3, 5.1, 640 Kbps | Оригинал | ENG |
скриншот  скриншот  скриншот  скриншот  скриншот  

General
Unique ID : 210778588735866923730997684518421984833 (0x9E927AC4FB6D19E5DC3209C54E7AF641)
Complete name : F:Video111It.Chapter.Two.2019.BDRip.720p.seleZen.mkv
Format : Matroska
Format version : Version 4
File size : 6.23 GiB
Duration : 2 h 49 min
Overall bit rate : 5 261 kb/s
Movie name : It Chapter Two 2019 from селезень
Encoded date : UTC 2019-12-01 11:42:42
Writing application : mkvmerge v40.0.0 ('Old Town Road + Pony') 64-bit
Writing library : libebml v1.3.9 + libmatroska v1.5.2

Video
ID : 1
Format : AVC
Format/Info : Advanced Video Codec
Format profile : High@L4.1
Format settings : CABAC / 12 Ref Frames
Format settings, CABAC : Yes
Format settings, Reference : 12 frames
Codec ID : V_MPEG4/ISO/AVC
Duration : 2 h 49 min
Bit rate : 3 659 kb/s
Width : 1 280 pixels
Height : 536 pixels
Display aspect ratio : 2.40:1
Frame rate mode : Constant
Frame rate : 23.976 (24000/1001) FPS
Color space : YUV
Chroma subsampling : 4:2:0
Bit depth : 8 bits
Scan type : Progressive
Bits/(Pixel*Frame) : 0.222
Stream size : 4.33 GiB (70%)
Title : Encoded by seleZen
Writing library : x264 core 148 r2705kMod 3f5ed56
Encoding settings : cabac=1 / ref=12 / deblock=1:-2:-2 / analyse=0x3:0x113 / me=umh / subme=11 / psy=1 / fade_compensate=0.00 / psy_rd=1.01:0.00 / mixed_ref=1 / me_range=32 / chroma_me=1 / trellis=2 / 8x8dct=1 / cqm=0 / deadzone=21,11 / fast_pskip=0 / chroma_qp_offset=-2 / threads=17 / lookahead_threads=4 / sliced_threads=0 / nr=0 / decimate=0 / interlaced=0 / bluray_compat=0 / constrained_intra=0 / fgo=0 / bframes=10 / b_pyramid=2 / b_adapt=2 / b_bias=0 / direct=3 / weightb=1 / open_gop=0 / weightp=2 / keyint=240 / keyint_min=23 / scenecut=40 / intra_refresh=0 / rc_lookahead=50 / rc=2pass / mbtree=0 / bitrate=3659 / ratetol=1.0 / qcomp=0.60 / qpmin=0 / qpmax=51 / qpstep=4 / cplxblur=20.0 / qblur=0.5 / vbv_maxrate=50000 / vbv_bufsize=62500 / nal_hrd=none / filler=0 / ip_ratio=1.40 / pb_ratio=1.30 / aq=3:0.80
Language : English
Default : Yes
Forced : No

Audio #1
ID : 2
Format : AC-3
Format/Info : Audio Coding 3
Commercial name : Dolby Digital
Codec ID : A_AC3
Duration : 2 h 49 min
Bit rate mode : Constant
Bit rate : 384 kb/s
Channel(s) : 6 channels
Channel layout : L R C LFE Ls Rs
Sampling rate : 48.0 kHz
Frame rate : 31.250 FPS (1536 SPF)
Bit depth : 16 bits
Compression mode : Lossy
Stream size : 465 MiB (7%)
Title : Dub [iTunes]
Language : Russian
Service kind : Complete Main
Default : Yes
Forced : Yes

Audio #2
ID : 3
Format : AC-3
Format/Info : Audio Coding 3
Commercial name : Dolby Digital
Codec ID : A_AC3
Duration : 2 h 49 min
Bit rate mode : Constant
Bit rate : 192 kb/s
Channel(s) : 2 channels
Channel layout : L R
Sampling rate : 48.0 kHz
Frame rate : 31.250 FPS (1536 SPF)
Bit depth : 16 bits
Compression mode : Lossy
Stream size : 233 MiB (4%)
Title : MVO [HDRezka Studio]
Language : Russian
Service kind : Complete Main
Default : No
Forced : No

Audio #3
ID : 4
Format : AC-3
Format/Info : Audio Coding 3
Commercial name : Dolby Digital
Codec ID : A_AC3
Duration : 2 h 49 min
Bit rate mode : Constant
Bit rate : 384 kb/s
Channel(s) : 6 channels
Channel layout : L R C LFE Ls Rs
Sampling rate : 48.0 kHz
Frame rate : 31.250 FPS (1536 SPF)
Bit depth : 16 bits
Compression mode : Lossy
Stream size : 465 MiB (7%)
Title : Dub
Language : Ukrainian
Service kind : Complete Main
Default : No
Forced : No

Audio #4
ID : 5
Format : AC-3
Format/Info : Audio Coding 3
Commercial name : Dolby Digital
Codec ID : A_AC3
Duration : 2 h 49 min
Bit rate mode : Constant
Bit rate : 640 kb/s
Channel(s) : 6 channels
Channel layout : L R C LFE Ls Rs
Sampling rate : 48.0 kHz
Frame rate : 31.250 FPS (1536 SPF)
Bit depth : 16 bits
Compression mode : Lossy
Stream size : 776 MiB (12%)
Title : Original
Language : English
Service kind : Complete Main
Default : No
Forced : No

Text #1
ID : 6
Format : UTF-8
Codec ID : S_TEXT/UTF8
Codec ID/Info : UTF-8 Plain Text
Duration : 2 h 48 min
Bit rate : 1 b/s
Count of elements : 68
Stream size : 2.40 KiB (0%)
Title : Forced
Language : Russian
Default : Yes
Forced : Yes

Text #2
ID : 7
Format : UTF-8
Codec ID : S_TEXT/UTF8
Codec ID/Info : UTF-8 Plain Text
Duration : 2 h 48 min
Bit rate : 76 b/s
Count of elements : 2331
Stream size : 94.7 KiB (0%)
Title : Full
Language : Russian
Default : No
Forced : No

Text #3
ID : 8
Format : UTF-8
Codec ID : S_TEXT/UTF8
Codec ID/Info : UTF-8 Plain Text
Duration : 2 h 44 min
Bit rate : 72 b/s
Count of elements : 1705
Stream size : 87.9 KiB (0%)
Title : Full [FOCS]
Language : Russian
Default : No
Forced : No

Text #4
ID : 9
Format : UTF-8
Codec ID : S_TEXT/UTF8
Codec ID/Info : UTF-8 Plain Text
Duration : 2 h 48 min
Bit rate : 1 b/s
Count of elements : 66
Stream size : 2.33 KiB (0%)
Title : Forced
Language : Ukrainian
Default : No
Forced : No

Text #5
ID : 10
Format : UTF-8
Codec ID : S_TEXT/UTF8
Codec ID/Info : UTF-8 Plain Text
Duration : 2 h 44 min
Bit rate : 60 b/s
Count of elements : 2828
Stream size : 72.8 KiB (0%)
Title : SDH
Language : English
Default : No
Forced : No

Menu
00:00:00.000 : en:Chapter 01
00:09:10.341 : en:Chapter 02
00:19:06.354 : en:Chapter 03
00:27:00.744 : en:Chapter 04
00:37:51.227 : en:Chapter 05
00:46:19.986 : en:Chapter 06
00:55:46.802 : en:Chapter 07
01:05:36.474 : en:Chapter 08
01:17:19.134 : en:Chapter 09
01:29:21.565 : en:Chapter 10
01:41:02.974 : en:Chapter 11
01:49:11.336 : en:Chapter 12
01:59:33.833 : en:Chapter 13
02:05:31.774 : en:Chapter 14
02:14:25.933 : en:Chapter 15
02:22:43.889 : en:Chapter 16
02:32:57.168 : en:Chapter 17
02:42:15.643 : en:Chapter 18
02:44:52.508 : en:Chapter 19

pb.wtf



Скачать Оно 2 через торрент https://a.radikal.ru/a29/1911/fe/9cb2ca5ba608.jpg Скачать фильм Оно 2 через торрент бесплантно в хорошем качестве Описание: Проходит 27 лет после первой встречи ребят с демоническим Пеннивайзом. Они уже выросли, и у каждого своя жизнь. Но неожиданно их ... 10 10 2
Торрент: Зарегистрирован [2019-12-01 12:08] · скачан: 53 раз
Статус: √ проверено
Размер: 6.23 GB
Как cкачать? Как скачать Оно 2 через торрент | qTorrent

% Раздел Тема Автор DL S | L
Фильмы 2019 [DVDrip, WEB-DLRip, HDrip] (DUB, MVO) [ 1.46 GB ] Оно 2 / It Chapter Two [2019 BDRip] - Twi7ter Скачать
164 | 18
Фильмы [HD 720p, 1080p] (Хороший звук DUB, MVO) [ 3.77 GB ] Оно 2 / It Chapter Two [2019 BDRip 1080p HEVC ] Мичман37 Скачать
4 | 0
Фильмы 2019 [DVDrip, WEB-DLRip, HDrip] (DUB, MVO) [ 2.18 GB ] Оно 2 / It Chapter Two [2019 BDRip] - Twi7ter Скачать
52 | 3
Фильмы 2019 [DVDrip, WEB-DLRip, HDrip] (DUB, MVO) [ 3.27 GB ] Оно 2 / It Chapter Two [2019 WEB-DLRip-AVC] Dub MVO [HDRezka Studio] - ExKinoRay Enigma2010 Скачать
179 | 6
Ultra HD (UHD: 2K, 4K, 8K) — видео сверхвысокой чёткости [ 24.16 GB ] Оно 2 / It Chapter Two [2019 UHD BDRip 2160p] DUB +MVO [HDRezka Studio] bober100 Скачать
2 | 0
Фильмы 2019 [DVDrip, WEB-DLRip, HDrip] (DUB, MVO) [ 3.13 GB ] Оно 2 / It Chapter Two [2019 BDRip-AVC] Dub MVO [HDRezka Studio] - ExKinoRay Enigma2010 Скачать
63 | 8
Фильмы 2019 [DVDrip, WEB-DLRip, HDrip] (DUB, MVO) [ 2.57 GB ] Оно 2 / It Chapter Two [2019 BDRip-AVC] bober100 Скачать
4 | 0

28-11-2019 20:33  

Отключить всю рекламу на сайте

    Дорогой пользователь! Огромная просьба, поблагодарите релизера, оцените раздачу и оставьте свои комментарий, если Вы скачали Оно 2 через торрент бесплатно! Внесите свою лепту в развитие PiratBit!
    Комментировать посты могут только пользователи прошедшие не сложную регистрацию
    Показать сообщения:    

    Оно 2 через торрент
    Скачать бесплатно Оно 2
    Оно 2 скачать торрент
    Оно 2 смотреть онлайн
    Cкачать фильм Оно 2 бесплатно
    Оно 2 скачать торрент в хорошем качестве
    Оно 2 смотреть онлайн бесплатно в хорошем качестве


    Вы не можете начинать темы
    Вы не можете отвечать на сообщения
    Вы не можете редактировать свои сообщения
    Вы не можете удалять свои сообщения
    Вы не можете голосовать в опросах
    Вы не можете прикреплять файлы к сообщениям
    Вы можете скачивать файлы