новый адрес
Ссылка на приватное зеркало всего за 1$. Внимание количество ограничено!!!

iTunes

1+1

iTunes

мы

WEB-DL

1

iTunes

Чернобыль

iTunes

Ральф против интернета

Лицензия

ПШазам

Лицензия

Оно 2

Лицензия

30
pack

Вам бонус

ВАЖНО

!!Акция!!

Alien_RageХит недели

RePack

Resident Evil 21

ИГРА 18+

pack

RePack

jed

!!Акция!!

Alien_Rage

RePack

fifa19

RePack

Assassins Creed: Odyssey

RePack

NEED FOR SPEED™ PAYBACK

3 сезон

9 сезон

Бесстыжие 9 сезон

Все сериалы

все сериалы на PB.wtf

RePack

FAR CRY 5
Ребята, катастрофически не хватает 1900р. для оплаты серверов за Октябрь (всвязи с блокировками трафик упал в 3 раза), 1-2р., выручайте.
  

Щегол / The Goldfinch (Джон Краули) [2019, драма, BDRip-AVC] DUB [iTunes] pb.wtf

Щегол через торрент pb.wtf

Раздают: 18 [ 1 MB/s ] Качают: 3 [ 2 MB/s ]
Размер: 2.51 GB | Добавлен: 5 д. назад | Торрент скачан:107 раз
Скачать  

01-12-2019 20:26 Щегол Скачать торрент  

Щегол / The Goldfinch«История украденной жизни»
Год выпуска: 2019
Страна: США
Жанр: драма
Продолжительность: 02:29:26
Перевод: Дублированный | iTunes
Субтитры: Русские (форс., полные)

Режиссер: Джон Краули

rating

В ролях: Энсел Элгорт, Оакс Фигли, Анейрин Барнард, Финн Вулфард, Сара Полсон, Люк Уилсон, Джеффри Райт, Николь Кидман, Эшли Каммингс, Уилла Фицджералд, Айми Лоуренс, Роберт Джой, Бойд Гейнс, Карли Коннорс, Люк Клеинтенк

Описание: История юного Теодора Деккера, потерявшего мать во время теракта в Метрополитен-музее. Чудом оставшись в живых после взрыва, Тео получает от умирающего старика редкую картину кисти Карела Фабрициуса и кольцо. С этого момента начинается его погружение в подпольный мир искусства

Качество: BDRip-AVC
Формат: MKV

Видео: 1024x554 (1.85:1), 23,976 fps, x264 ~2 034 kbps avg, 0.150 bit/pixel
Аудио: 48 kHz, AC3 Dolby Digital, 3/2 (L,C,R,l,r) + LFE ch, ~384.00 kbps avg | RUS (iTunes)
скриншот  скриншот  скриншот  скриншот  скриншот  

Общее
Уникальный идентификатор : 52643779569014031417328217165666162329 (0x279AD2B9AE5B96FA3D93E2ECC5FB9699)
Полное имя : F:\OlLanDGroup\The.Goldfinch.2019.BDRip(AVC).OlLanDGroup.mkv
Формат : Matroska
Версия формата : Version 4 / Version 2
Размер файла : 2,51 Гбайт
Продолжительность : 2 ч. 29 м.
Общий поток : 2401 Кбит/сек
Название фильма : The.Goldfinch.2019 #TorpedoUK#
Дата кодирования : UTC 2019-12-01 03:09:07
Программа кодирования : mkvmerge v29.0.0 ('Like It Or Not') 64-bit
Библиотека кодирования : libebml v1.3.6 + libmatroska v1.4.9

Видео
Идентификатор : 1
Формат : AVC
Формат/Информация : Advanced Video Codec
Профиль формата : High@L4.1
Параметр CABAC формата : Да
Параметр ReFrames формата : 10 кадров
Идентификатор кодека : V_MPEG4/ISO/AVC
Продолжительность : 2 ч. 29 м.
Битрейт : 2034 Кбит/сек
Ширина : 1024 пикселя
Высота : 554 пикселя
Соотношение сторон : 1,85:1
Режим частоты кадров : Постоянный
Частота кадров : 23,976 (24000/1001) кадра/сек
Цветовое пространство : YUV
Субдискретизация насыщенности : 4:2:0
Битовая глубина : 8 бит
Тип развёртки : Прогрессивная
Бит/(Пиксели*Кадры) : 0.150
Размер потока : 2,10 Гбайт (84%)
Библиотека кодирования : x264 core 146 r2538 121396c
Настройки программы : cabac=1 / ref=10 / deblock=1:-3:-3 / analyse=0x3:0x113 / me=umh / subme=11 / psy=1 / psy_rd=0.97:0.05 / mixed_ref=1 / me_range=48 / chroma_me=1 / trellis=2 / 8x8dct=1 / cqm=0 / deadzone=21,11 / fast_pskip=1 / chroma_qp_offset=-6 / threads=6 / lookahead_threads=1 / sliced_threads=0 / nr=0 / decimate=1 / interlaced=0 / bluray_compat=0 / constrained_intra=0 / bframes=11 / b_pyramid=2 / b_adapt=2 / b_bias=0 / direct=3 / weightb=1 / open_gop=0 / weightp=2 / keyint=240 / keyint_min=23 / scenecut=40 / intra_refresh=0 / rc_lookahead=40 / rc=2pass / mbtree=0 / bitrate=2034 / ratetol=1.0 / qcomp=0.60 / qpmin=0 / qpmax=69 / qpstep=4 / cplxblur=20.0 / qblur=0.5 / vbv_maxrate=50000 / vbv_bufsize=62500 / nal_hrd=none / filler=0 / ip_ratio=1.40 / pb_ratio=1.30 / aq=1:1.00
Язык : English
Default : Да
Forced : Нет

Аудио
Идентификатор : 2
Формат : AC-3
Формат/Информация : Audio Coding 3
Расширение режима : CM (complete main)
Параметр Endianness формата : Big
Идентификатор кодека : A_AC3
Продолжительность : 2 ч. 29 м.
Вид битрейта : Постоянный
Битрейт : 384 Кбит/сек
Каналы : 6 каналов
Расположение каналов : Front: L C R, Side: L R, LFE
Частота : 48,0 КГц
Частота кадров : 31,250 кадров/сек (1536 spf)
Битовая глубина : 16 бит
Метод сжатия : С потерями
Размер потока : 410 Мбайт (16%)
Заголовок : DUB [iTunes]
Язык : Russian
Default : Да
Forced : Нет

Текст #1
Идентификатор : 3
Формат : UTF-8
Идентификатор кодека : S_TEXT/UTF8
Идентификатор кодека/Информация : UTF-8 Plain Text
Продолжительность : 2 ч. 19 м.
Битрейт : 1 бит/сек
Count of elements : 16
Размер потока : 1,06 Кбайт (0%)
Заголовок : Forced
Язык : Russian
Default : Да
Forced : Нет

Текст #2
Идентификатор : 4
Формат : UTF-8
Идентификатор кодека : S_TEXT/UTF8
Идентификатор кодека/Информация : UTF-8 Plain Text
Продолжительность : 2 ч. 28 м.
Битрейт : 73 бит/сек
Count of elements : 1699
Размер потока : 80,0 Кбайт (0%)
Заголовок : Full
Язык : Russian
Default : Нет
Forced : Нет

Меню
00:00:00.000 : en:00:00:00.000
00:10:12.821 : en:00:10:12.821
00:18:52.673 : en:00:18:52.673
00:29:06.662 : en:00:29:06.662
00:38:02.947 : en:00:38:02.947
00:48:50.886 : en:00:48:50.886
00:57:58.684 : en:00:57:58.684
01:07:23.706 : en:01:07:23.706
01:13:11.596 : en:01:13:11.596
01:21:32.387 : en:01:21:32.387
01:30:45.774 : en:01:30:45.774
01:40:34.695 : en:01:40:34.695
01:47:09.632 : en:01:47:09.632
01:59:06.890 : en:01:59:06.890
02:04:56.197 : en:02:04:56.197
02:11:11.864 : en:02:11:11.864
02:21:56.425 : en:02:21:56.425

pb.wtf



Скачать Щегол через торрент https://d.radikal.ru/d01/1912/82/0b88184f3340.jpg Скачать фильм Щегол через торрент бесплантно в хорошем качестве Описание: История юного Теодора Деккера, потерявшего мать во время теракта в Метрополитен-музее. Чудом оставшись в живых после взрыва, Тео ... 10 10 6
Торрент: Зарегистрирован [2019-12-01 20:26] · скачан: 107 раз
Статус: √ проверено
Размер: 2.51 GB
Как cкачать? Как скачать Щегол через торрент | qTorrent

% Раздел Тема Автор DL S | L
Фильмы [HD 720p, 1080p] (Хороший звук DUB, MVO) [ 8.7 GB ] Щегол / The Goldfinch [2019 BDRip 720p] DUB bober100 Скачать
19 | 0
Фильмы (Blu-ray, BD-Remux, HDDVD) [ 29.74 GB ] Щегол / The Goldfinch [2019 BD Remux 1080p] DUB bober100 Скачать
3 | 0
Фильмы 2019 [DVDrip, WEB-DLRip, HDrip] (DUB, MVO) [ 1.46 GB ] Щегол / The Goldfinch [2019 BDRip] bober100 Скачать
34 | 1
Фильмы [HD 720p, 1080p] (Хороший звук DUB, MVO) [ 18.05 GB ] Щегол / The Goldfinch [2019 BDRip 1080p] DUB bober100 Скачать
19 | 0
Фильмы 2019 [DVDrip, WEB-DLRip, HDrip] (DUB, MVO) [ 2.2 GB ] Щегол / The Goldfinch [2019 HDRip] killermax2013 Скачать
17 | 2
Фильмы без перевода [ 1.46 GB ] Щегол / The Goldfinch [2019 HDRip] [Sub] killermax2013 Скачать
3 | 0

28-11-2019 20:33  

Отключить всю рекламу на сайте

    Дорогой пользователь! Огромная просьба, поблагодарите релизера, оцените раздачу и оставьте свои комментарий, если Вы скачали Щегол через торрент бесплатно! Внесите свою лепту в развитие PiratBit!
    Комментировать посты могут только пользователи прошедшие не сложную регистрацию
    Показать сообщения:    

    Щегол через торрент
    Скачать бесплатно Щегол
    Щегол скачать торрент
    Щегол смотреть онлайн
    Cкачать фильм Щегол бесплатно
    Щегол скачать торрент в хорошем качестве
    Щегол смотреть онлайн бесплатно в хорошем качестве


    Вы не можете начинать темы
    Вы не можете отвечать на сообщения
    Вы не можете редактировать свои сообщения
    Вы не можете удалять свои сообщения
    Вы не можете голосовать в опросах
    Вы не можете прикреплять файлы к сообщениям
    Вы можете скачивать файлы