новый адрес
Ссылка на приватное зеркало всего за 1$. Внимание количество ограничено!!!

iTunes

1+1

iTunes

мы

WEB-DL

1

iTunes

Чернобыль

iTunes

Ральф против интернета

Лицензия

ПШазам

Лицензия

Оно 2

Лицензия

30
pack

Вам бонус

ВАЖНО

!!Акция!!

Alien_RageХит недели

RePack

Resident Evil 21

ИГРА 18+

pack

RePack

jed

!!Акция!!

Alien_Rage

RePack

fifa19

RePack

Assassins Creed: Odyssey

RePack

NEED FOR SPEED™ PAYBACK

3 сезон

9 сезон

Бесстыжие 9 сезон

Все сериалы

все сериалы на PB.wtf

RePack

FAR CRY 5
Ребята, катастрофически не хватает 1900р. для оплаты серверов за Октябрь (всвязи с блокировками трафик упал в 3 раза), 1-2р., выручайте.
  

Зимние каникулы / La classe de neige (Клод Миллер) [1998, драма, детектив, BDRip 1080p by msltel] 2 x MVO, AVO pb.wtf

Зимние каникулы через торрент pb.wtf

Раздают: 1 [ 0 KB/s ]
Размер: 14.19 GB | Добавлен: 6 д. назад | Торрент скачан:3 раза
Скачать  

02-12-2019 09:24 Зимние каникулы Скачать торрент  

Название: Зимние каникулы
Оригинальное название: La classe de neige
Год выпуска: 1998
Страна: Франция
Жанр: драма, детектив
Продолжительность: 01:37:14
Перевод: профессиональный многоголосый, авторский

Режиссер: Клод Миллер
В ролях: Клеман ван ден Берг, Локман Налькакан, Франсуа Рой, Ив Верховен, Эмманюэль Берко, Тина Спортоларо, Ив Жак, Шанталь Банлье, Бенуа Херлин, Жюльен Ле Муэль, Луи Пишон, Тьерри Редлер, Антея Соньё, Жан-Клод Фриссунг, Валери Беттенкурт

О фильме: Что может быть приятнее для каждого школьника, чем перспектива провести несколько недель в зимних, покрытых снегом горах, вдали от родителей и окружённым сверстниками-друзьями? Однако далеко не для всех зимний детский лагерь может стать праздником, особенно если ты не совсем здоров, в семье проблемы, а твой собственный папа развлекается тем, что рассказывает сыну истории-страшилки про злодеев, охотящихся за детишками и продающих их впоследствии извергам-хирургам, чтобы разобрать их на донорские органы… Фильм снят по одноимённому роману Эммануэля Каррера (1995).



Качество: BDRip 1080p
Формат: MKV
Видео: MPEG-4 AVC, 17.5 Mбит/с, 1920x816, 24 кадр/с
Аудио 1: русский, AC3, 192 kbps, 2 ch, 48 kHz [закадровый многоголосый, R5 «Неоклассика»]
Аудио 2: русский, AC3, 192 kbps, 2 ch, 48 kHz [закадровый многоголосый, НТВ]
Аудио 3: русский, DTS, 1509 kbps, 6 ch, 48 kHz [авторский, Сергей Кузнецов]
Аудио 4: французский, DTS, 1509 kbps, 6 ch, 48 kHz [оригинал]
Субтитры 1: русские
Субтитры 2: французские
Субтитры 3: английские
Главы/чаптеры
Общее
Уникальный идентификатор : 254911174079520567904778273126925784674 (0xBFC61B3890AD4B3EBBFE5C186224D662)
Полное имя : D:\Video\Зимние каникулы.1998.BDRip 1080p by msltel.mkv
Формат : Matroska
Версия формата : Version 4
Размер файла : 14,2 Гбайт
Продолжительность : 1 ч. 37 м.
Общий поток : 20,9 Мбит/сек
Название фильма : Rip by msltel
Дата кодирования : UTC 2019-12-02 08:24:24
Программа кодирования : mkvmerge v8.2.0 ('World of Adventure') 64bit
Библиотека кодирования : libebml v1.3.1 + libmatroska v1.4.2

Видео
Идентификатор : 1
Формат : AVC
Формат/Информация : Advanced Video Codec
Профиль формата : High@L4.1
Настройки формата : CABAC / 4 Ref Frames
Параметр CABAC формата : Да
Параметр RefFrames формата : 4 кадра
Идентификатор кодека : V_MPEG4/ISO/AVC
Продолжительность : 1 ч. 37 м.
Битрейт : 17,5 Мбит/сек
Ширина : 1920 пикселей
Высота : 816 пикселей
Соотношение сторон : 2,35:1
Режим частоты кадров : Постоянный
Частота кадров : 24,000 кадра/сек
Цветовое пространство : YUV
Субдискретизация насыщенности : 4:2:0
Битовая глубина : 8 бит
Тип развёртки : Прогрессивная
Бит/(Пиксели*Кадры) : 0.465
Размер потока : 11,9 Гбайт (84%)
Библиотека кодирования : x264 core 157 r2935 545de2f
Настройки программы : cabac=1 / ref=4 / deblock=1:-2:-2 / analyse=0x3:0x113 / me=umh / subme=11 / psy=1 / psy_rd=1.00:0.15 / mixed_ref=1 / me_range=32 / chroma_me=1 / trellis=2 / 8x8dct=1 / cqm=0 / deadzone=21,11 / fast_pskip=0 / chroma_qp_offset=-3 / threads=6 / lookahead_threads=1 / sliced_threads=0 / nr=0 / decimate=1 / interlaced=0 / bluray_compat=0 / constrained_intra=0 / bframes=16 / b_pyramid=2 / b_adapt=2 / b_bias=0 / direct=1 / weightb=1 / open_gop=0 / weightp=2 / keyint=230 / keyint_min=23 / scenecut=40 / intra_refresh=0 / rc_lookahead=40 / rc=crf / mbtree=0 / crf=18.5 / qcomp=0.60 / qpmin=0 / qpmax=69 / qpstep=4 / vbv_maxrate=50000 / vbv_bufsize=62500 / crf_max=0.0 / nal_hrd=none / filler=0 / ip_ratio=1.40 / pb_ratio=1.30 / aq=1:1.00
Язык : French
Default : Да
Forced : Нет

Аудио #1
Идентификатор : 2
Формат : AC-3
Формат/Информация : Audio Coding 3
Коммерческое название : Dolby Digital
Идентификатор кодека : A_AC3
Продолжительность : 1 ч. 37 м.
Вид битрейта : Постоянный
Битрейт : 192 Кбит/сек
Каналы : 2 канала
ChannelLayout : L R
Частота : 48,0 КГц
Частота кадров : 31,250 кадров/сек (1536 SPF)
Метод сжатия : С потерями
Размер потока : 134 Мбайт (1%)
Заголовок : MVO R5 «Неоклассика»
Язык : Russian
ServiceKind/String : Complete Main
Default : Да
Forced : Нет

Аудио #2
Идентификатор : 3
Формат : AC-3
Формат/Информация : Audio Coding 3
Коммерческое название : Dolby Digital
Идентификатор кодека : A_AC3
Продолжительность : 1 ч. 37 м.
Вид битрейта : Постоянный
Битрейт : 192 Кбит/сек
Каналы : 2 канала
ChannelLayout : L R
Частота : 48,0 КГц
Частота кадров : 31,250 кадров/сек (1536 SPF)
Метод сжатия : С потерями
Размер потока : 134 Мбайт (1%)
Заголовок : MVO HTB
Язык : Russian
ServiceKind/String : Complete Main
Default : Нет
Forced : Нет

Аудио #3
Идентификатор : 4
Формат : DTS
Формат/Информация : Digital Theater Systems
Идентификатор кодека : A_DTS
Продолжительность : 1 ч. 37 м.
Вид битрейта : Постоянный
Битрейт : 1509 Кбит/сек
Каналы : 6 каналов
ChannelLayout : C L R Ls Rs LFE
Частота : 48,0 КГц
Частота кадров : 93,750 кадра/сек (512 SPF)
Битовая глубина : 24 бит
Метод сжатия : С потерями
Размер потока : 1,02 Гбайт (7%)
Заголовок : Сергей Кузнецов
Язык : Russian
Default : Нет
Forced : Нет

Аудио #4
Идентификатор : 5
Формат : DTS
Формат/Информация : Digital Theater Systems
Идентификатор кодека : A_DTS
Продолжительность : 1 ч. 37 м.
Вид битрейта : Постоянный
Битрейт : 1509 Кбит/сек
Каналы : 6 каналов
ChannelLayout : C L R Ls Rs LFE
Частота : 48,0 КГц
Частота кадров : 93,750 кадра/сек (512 SPF)
Битовая глубина : 24 бит
Метод сжатия : С потерями
Размер потока : 1,02 Гбайт (7%)
Заголовок : original
Язык : French
Default : Нет
Forced : Нет

Текст #1
Идентификатор : 6
Формат : UTF-8
Идентификатор кодека : S_TEXT/UTF8
Идентификатор кодека/Информация : UTF-8 Plain Text
Продолжительность : 1 ч. 32 м.
Битрейт : 71 бит/сек
ElementCount : 858
Размер потока : 48,4 Кбайт (0%)
Заголовок : русские
Язык : Russian
Default : Нет
Forced : Нет

Текст #2
Идентификатор : 7
Формат : UTF-8
Идентификатор кодека : S_TEXT/UTF8
Идентификатор кодека/Информация : UTF-8 Plain Text
Продолжительность : 1 ч. 34 м.
Битрейт : 44 бит/сек
ElementCount : 942
Размер потока : 30,6 Кбайт (0%)
Заголовок : французские
Язык : Russian
Default : Нет
Forced : Нет

Текст #3
Идентификатор : 8
Формат : UTF-8
Идентификатор кодека : S_TEXT/UTF8
Идентификатор кодека/Информация : UTF-8 Plain Text
Продолжительность : 1 ч. 30 м.
Битрейт : 34 бит/сек
ElementCount : 837
Размер потока : 23,0 Кбайт (0%)
Заголовок : английские
Язык : English
Default : Нет
Forced : Нет

Меню
00:00:00.000 : :Chapter 1
00:08:44.375 : :Chapter 2
00:16:28.416 : :Chapter 3
00:25:03.583 : :Chapter 4
00:32:23.333 : :Chapter 5
00:40:59.000 : :Chapter 6
00:48:40.166 : :Chapter 7
00:56:06.833 : :Chapter 8
01:04:06.666 : :Chapter 9
01:12:30.291 : :Chapter 10
01:20:42.625 : :Chapter 11
01:28:01.916 : :Chapter 12
01:37:13.750 : :Chapter 13
pb.wtf



Скачать Зимние каникулы через торрент https://d.radikal.ru/d01/1912/a8/371b39e765a9.png Скачать фильм Зимние каникулы через торрент бесплантно в хорошем качестве О фильме: Что может быть приятнее для каждого школьника, чем перспектива провести несколько недель в зимних, покрытых снегом горах, вдали ... 5 10 1
Торрент: Зарегистрирован [2019-12-02 09:24] · скачан: 3 раз
Статус: √ проверено
Размер: 14.19 GB
Как cкачать? Как скачать Зимние каникулы через торрент | qTorrent

% Раздел Тема Автор DL S | L
Арт-хаус и авторское кино [ 4.98 GB ] Зимние каникулы / La classe de neige [1998 BDRip 720p by msltel] 2 x MVO AVO msltel Скачать
2 | 0

28-11-2019 20:33  

Отключить всю рекламу на сайте

    Дорогой пользователь! Огромная просьба, поблагодарите релизера, оцените раздачу и оставьте свои комментарий, если Вы скачали Зимние каникулы через торрент бесплатно! Внесите свою лепту в развитие PiratBit!
    Комментировать посты могут только пользователи прошедшие не сложную регистрацию
    Показать сообщения:    

    Зимние каникулы через торрент
    Скачать бесплатно Зимние каникулы
    Зимние каникулы скачать торрент
    Зимние каникулы смотреть онлайн
    Cкачать фильм Зимние каникулы бесплатно
    Зимние каникулы скачать торрент в хорошем качестве
    Зимние каникулы смотреть онлайн бесплатно в хорошем качестве


    Вы не можете начинать темы
    Вы не можете отвечать на сообщения
    Вы не можете редактировать свои сообщения
    Вы не можете удалять свои сообщения
    Вы не можете голосовать в опросах
    Вы не можете прикреплять файлы к сообщениям
    Вы можете скачивать файлы