новый адрес
Ссылка на приватное зеркало всего за 1$. Внимание количество ограничено!!!

iTunes

1+1

iTunes

мы

WEB-DL

1

iTunes

Чернобыль

iTunes

Ральф против интернета

Лицензия

ПШазам

Лицензия

Оно 2

Лицензия

30
pack

Вам бонус

ВАЖНО

!!Акция!!

Alien_RageХит недели

RePack

Resident Evil 21

ИГРА 18+

pack

RePack

jed

!!Акция!!

Alien_Rage

RePack

fifa19

RePack

Assassins Creed: Odyssey

RePack

NEED FOR SPEED™ PAYBACK

3 сезон

9 сезон

Бесстыжие 9 сезон

Все сериалы

все сериалы на PB.wtf

RePack

FAR CRY 5
Ребята, катастрофически не хватает 1900р. для оплаты серверов за Октябрь (всвязи с блокировками трафик упал в 3 раза), 1-2р., выручайте.
  

Рокки 10: Последний раунд / Rockey X: The Final Round (Buck Adams) [1988 г., All Sex, Feature, Classic, VHSRip] AVO (А.Марченко) pb.wtf

Рокки 10: Последний раунд через торрент pb.wtf

Раздают: 2 [ 0 KB/s ]
Размер: 1.64 GB | Добавлен: 7 д. назад | Торрент скачан:87 раз
Скачать  

02-12-2019 11:37 Рокки 10: Последний раунд Скачать торрент  

Рокки 10: Последний раунд / Rockey X: The Final Round
Год выпуска: 1988

Страна: США

Жанр: All Sex, Feature, Classic

Продолжительность: 01:29:54

Перевод: Авторский (одноголосый) - А.Марченко

Студия: Penguin Productions

Режиссер: Buck Adams

В ролях: Jerry Buttler, Buck Adams, Amber Lynn, Charlie St. Cyre, Jeanette Littledove, Kristy Leigh, Ron Jeremy, Steve Austin

Описание: Рокки Лагуна - человек с миссией, и готов на всё, чтобы добиться цели. Драксу Спаго нечего терять... кроме титула чемпиона.
Качество: VHSRip
Формат: MPEG
Видео: MPEG, 2355 Кбит/сек, 480x576
Аудио: Русский, MP2, 2 ch, 224 Кбит/сек
Видео
Идентификатор : 224 (0xE0)
Формат : MPEG Video
Версия формата : Version 2
Профиль формата : Main@Main
Настройки формата : BVOP
Параметр BVOP формата : Да
Параметр матрицы формата : По умолчанию
Параметр GOP формата : M=3, N=15
Продолжительность : 1 ч. 29 м.
Вид битрейта : Постоянный
Битрейт : 2355 Кбит/сек
Ширина : 480 пикселей
Высота : 576 пикселей
Соотношение сторон : 4:3
Частота кадров : 25,000 кадров/сек
Стандарт вещания : PAL
Цветовое пространство : YUV
Субдискретизация насыщенности : 4:2:0
Битовая глубина : 8 бит
Тип развёртки : Прогрессивная
Метод сжатия : С потерями
Бит/(Пиксели*Кадры) : 0.341
Временной код первого кадра : 00:00:01:18
Оригинал временного кода : Group of pictures header
GOP, открыто/закрыто : Открыто
Размер потока : 1,47 Гбайт (89%)
Основные цвета : BT.601 PAL
Характеристики трансфера : BT.470 System B/G
Коэффициенты матрицы : BT.470 System B/G

Аудио
Идентификатор : 192 (0xC0)
Формат : MPEG Audio
Версия формата : Version 1
Профиль формата : Layer 2
Продолжительность : 1 ч. 29 м.
Вид битрейта : Постоянный
Битрейт : 224 Кбит/сек
Каналы : 2 канала
Частота : 44,1 КГц
Частота кадров : 38,281 кадров/сек (1152 SPF)
Метод сжатия : С потерями
Задержка видео : -346 мс.
Размер потока : 144 Мбайт (9%)

скриншот  

pb.wtf



pack Скачать Рокки 10: Последний раунд через торрент http://pic1.kartinco.top/images/12/9kkf2.jpg Скачать фильм Рокки 10: Последний раунд через торрент бесплантно в хорошем качестве Описание: Рокки Лагуна - человек с миссией, и готов на всё, чтобы добиться цели. Драксу Спаго нечего терять... кроме титула ... 8 10 1
Info! Золотая раздача, скачанное не засчитывается.
Торрент: Зарегистрирован [2019-12-02 11:37] · скачан: 87 раз
Статус: √ проверено
Размер: 1.64 GB
Как cкачать? Как скачать Рокки 10: Последний раунд через торрент | qTorrent

28-11-2019 20:33  

Отключить всю рекламу на сайте

    Дорогой пользователь! Огромная просьба, поблагодарите релизера, оцените раздачу и оставьте свои комментарий, если Вы скачали Рокки 10: Последний раунд через торрент бесплатно! Внесите свою лепту в развитие PiratBit!
    Комментировать посты могут только пользователи прошедшие не сложную регистрацию
    Показать сообщения:    

    Рокки 10: Последний раунд через торрент
    Скачать бесплатно Рокки 10: Последний раунд
    Рокки 10: Последний раунд скачать торрент
    Рокки 10: Последний раунд смотреть онлайн
    Cкачать фильм Рокки 10: Последний раунд бесплатно
    Рокки 10: Последний раунд скачать торрент в хорошем качестве
    Рокки 10: Последний раунд смотреть онлайн бесплатно в хорошем качестве


    Вы не можете начинать темы
    Вы не можете отвечать на сообщения
    Вы не можете редактировать свои сообщения
    Вы не можете удалять свои сообщения
    Вы не можете голосовать в опросах
    Вы не можете прикреплять файлы к сообщениям
    Вы можете скачивать файлы