новый адрес
Ссылка на приватное зеркало всего за 1$. Внимание количество ограничено!!!

iTunes

1+1

iTunes

мы

WEB-DL

1

iTunes

Чернобыль

iTunes

Ральф против интернета

Лицензия

ПШазам

Лицензия

Оно 2

Лицензия

30
pack

Вам бонус

ВАЖНО

!!Акция!!

Alien_RageХит недели

RePack

Resident Evil 21

ИГРА 18+

pack

RePack

jed

!!Акция!!

Alien_Rage

RePack

fifa19

RePack

Assassins Creed: Odyssey

RePack

NEED FOR SPEED™ PAYBACK

3 сезон

9 сезон

Бесстыжие 9 сезон

Все сериалы

все сериалы на PB.wtf

RePack

FAR CRY 5
Ребята, катастрофически не хватает 1900р. для оплаты серверов за Октябрь (всвязи с блокировками трафик упал в 3 раза), 1-2р., выручайте.
  

Отрыв (Тигран Саакян) [2019, Триллер, BDRip-AVC] [GER Transfer / Лицензия] pb.wtf

Отрыв через торрент pb.wtf

Раздают: 4 [ 2 KB/s ]
Размер: 1.32 GB | Добавлен: 7 д. назад | Торрент скачан:79 раз
Скачать  

02-12-2019 14:25 Отрыв Скачать торрент  

Отрыв«Смерть не за горами»
Год выпуска: 2019
Страна: Россия
Жанр: Триллер
Продолжительность: 01:25:09
Перевод: Не требуется | Лицензия BD GER
Субтитры: отсутствуют

Режиссер: Тигран Саакян

rating

В ролях: Ирина Антоненко, Андрей Назимов, Денис Косяков, Ингрид Олеринская, Михаил Филиппов, Сергей Тодоров, Владимир Гусев, Елена Ветрова, Виктория Пятакина, Ангелина Пиковская

Описание: Компания друзей поднимается в горы, чтобы незабываемо встретить новогоднюю ночь на вершине горы. Ребята уже предвкушают, как под бой курантов и взрывы салютов они весело съедут вниз. Но приключение оборачивается настоящим кошмаром, когда в самый разгар праздника хлипкий вагончик, привёзший их ввысь, застревает над пропастью.

Качество: BDRip-AVC | GER Transfer
Формат: MKV

Видео: 1024x386 (2.65:1), 24,000 fps, x264 ~1 784 kbps avg, 0.188 bit/pixel
Аудио: 48 kHz, AC3 Dolby Digital, 3/2 (L,C,R,l,r) + LFE ch, ~448.00 kbps avg | RUS (Лицензия)
скриншот  скриншот  скриншот  скриншот  скриншот  

Общее
Уникальный идентификатор : 25245941375408340462072605879404411187 (0x12FE3102AA3C18D9B7A618CD15793933)
Полное имя : F:OlLanDGroupOtryv.2018.BDRip(AVC).OllanDGroup.mkv
Формат : Matroska
Версия формата : Version 4 / Version 2
Размер файла : 1,32 Гбайт
Продолжительность : 1 ч. 25 м.
Общий поток : 2228 Кбит/сек
Название фильма : Otryv.2018 #TorpedoUK#
Дата кодирования : UTC 2019-12-02 13:54:28
Программа кодирования : mkvmerge v29.0.0 ('Like It Or Not') 64-bit
Библиотека кодирования : libebml v1.3.6 + libmatroska v1.4.9

Видео
Идентификатор : 1
Формат : AVC
Формат/Информация : Advanced Video Codec
Профиль формата : High@L4.1
Параметр CABAC формата : Да
Параметр ReFrames формата : 10 кадров
Идентификатор кодека : V_MPEG4/ISO/AVC
Продолжительность : 1 ч. 25 м.
Битрейт : 1784 Кбит/сек
Ширина : 1024 пикселя
Высота : 386 пикселей
Соотношение сторон : 2,653
Режим частоты кадров : Постоянный
Частота кадров : 24,000 кадра/сек
Цветовое пространство : YUV
Субдискретизация насыщенности : 4:2:0
Битовая глубина : 8 бит
Тип развёртки : Прогрессивная
Бит/(Пиксели*Кадры) : 0.188
Размер потока : 1,06 Гбайт (80%)
Библиотека кодирования : x264 core 146 r2538 121396c
Настройки программы : cabac=1 / ref=10 / deblock=1:-2:-3 / analyse=0x3:0x113 / me=umh / subme=11 / psy=1 / psy_rd=0.95:0.07 / mixed_ref=1 / me_range=48 / chroma_me=1 / trellis=2 / 8x8dct=1 / cqm=0 / deadzone=21,11 / fast_pskip=1 / chroma_qp_offset=-6 / threads=6 / lookahead_threads=1 / sliced_threads=0 / nr=0 / decimate=1 / interlaced=0 / bluray_compat=0 / constrained_intra=0 / bframes=11 / b_pyramid=2 / b_adapt=2 / b_bias=0 / direct=3 / weightb=1 / open_gop=0 / weightp=2 / keyint=240 / keyint_min=23 / scenecut=40 / intra_refresh=0 / rc_lookahead=40 / rc=2pass / mbtree=0 / bitrate=1784 / ratetol=1.0 / qcomp=0.60 / qpmin=0 / qpmax=69 / qpstep=4 / cplxblur=20.0 / qblur=0.5 / vbv_maxrate=50000 / vbv_bufsize=62500 / nal_hrd=none / filler=0 / ip_ratio=1.40 / pb_ratio=1.30 / aq=1:1.00
Язык : English
Default : Да
Forced : Нет

Аудио
Идентификатор : 2
Формат : AC-3
Формат/Информация : Audio Coding 3
Расширение режима : CM (complete main)
Параметр Endianness формата : Big
Идентификатор кодека : A_AC3
Продолжительность : 1 ч. 25 м.
Вид битрейта : Постоянный
Битрейт : 448 Кбит/сек
Каналы : 6 каналов
Расположение каналов : Front: L C R, Side: L R, LFE
Частота : 48,0 КГц
Частота кадров : 31,250 кадров/сек (1536 spf)
Битовая глубина : 16 бит
Метод сжатия : С потерями
Размер потока : 273 Мбайт (20%)
Заголовок : [Original]
Язык : Russian
Default : Да
Forced : Нет

Меню
00:00:00.000 : :Глава 01
00:01:38.250 : :Глава 02
00:05:00.916 : :Глава 03
00:09:53.250 : :Глава 04
00:15:23.083 : :Глава 05
00:19:37.958 : :Глава 06
00:26:13.541 : :Глава 07
00:30:43.041 : :Глава 08
00:36:58.791 : :Глава 09
00:41:22.916 : :Глава 10
00:47:39.458 : :Глава 11
00:55:14.625 : :Глава 12
01:02:41.166 : :Глава 13
01:08:21.500 : :Глава 14
01:14:41.791 : :Глава 15
01:20:32.875 : :Глава 16

pb.wtf



Скачать Отрыв через торрент https://b.radikal.ru/b39/1912/8c/d926d3e8d7e0.png Скачать фильм Отрыв через торрент бесплантно в хорошем качестве Описание: Компания друзей поднимается в горы, чтобы незабываемо встретить новогоднюю ночь на вершине горы. Ребята уже предвкушают, как под ... 7.3 10 8
Info! Золотая раздача, скачанное не засчитывается.
Торрент: Зарегистрирован [2019-12-02 14:25] · скачан: 79 раз
Статус: √ проверено
Размер: 1.32 GB
Как cкачать? Как скачать Отрыв через торрент | qTorrent

% Раздел Тема Автор DL S | L
Документальные фильмы и телепередачи [ 465 MB ] Легенды Крыма. Призраки катакомб. [2015 Документальный военный DVB Русский] кэп Скачать
1 | 0
Фильмы 2018 [DVDrip, WEB-DLRip, HDrip] (DUB, MVO) [ 1.37 GB ] Точка отрыва / Action Point [2018 HDRip] DUB [] bober100 Скачать
1 | 0
Фильмы (Blu-ray, BD-Remux, HDDVD) [ 21.13 GB ] Точка отрыва / Action Point [2018 BDRemux 1080p] DUB [] -Lexx- Скачать
1 | 0
Отечественная Поп музыка (сборники) (mp3) [ 737 MB ] VA - Русский новогодний отрыв 2017 / MP3 / 256 kbps / Поп oleg8 Скачать
1 | 0
Отечественная Поп музыка (сборники) (mp3) [ 676 MB ] VA - Хитовый отрыв 11 2017 / MP3 / 256 kbps / Поп bober100 Скачать
1 | 0
Отечественная Поп музыка (сборники) (mp3) [ 676 MB ] VA - Хитовый отрыв 10 2017 / MP3 / 256 kbps / Поп bober100 Скачать
1 | 0
Отечественная Поп музыка (сборники) (mp3) [ 679 MB ] VA - Хитовый отрыв 9 2017 / MP3 / 256 kbps / Поп bober100 Скачать
1 | 0

28-11-2019 20:33  

Отключить всю рекламу на сайте

    Дорогой пользователь! Огромная просьба, поблагодарите релизера, оцените раздачу и оставьте свои комментарий, если Вы скачали Отрыв через торрент бесплатно! Внесите свою лепту в развитие PiratBit!
    Комментировать посты могут только пользователи прошедшие не сложную регистрацию
    Показать сообщения:    

    Отрыв через торрент
    Скачать бесплатно Отрыв
    Отрыв скачать торрент
    Отрыв смотреть онлайн
    Cкачать фильм Отрыв бесплатно
    Отрыв скачать торрент в хорошем качестве
    Отрыв смотреть онлайн бесплатно в хорошем качестве


    Вы не можете начинать темы
    Вы не можете отвечать на сообщения
    Вы не можете редактировать свои сообщения
    Вы не можете удалять свои сообщения
    Вы не можете голосовать в опросах
    Вы не можете прикреплять файлы к сообщениям
    Вы можете скачивать файлы