Ссылка на приватное зеркало всего за 1$. Внимание количество ограничено!!!

OK

1+1

iTunes

мы

OK

1

WEB-DLRip

Джокер

Пифагор

Ведьмак / The Witcher сериал

iTunes

ПШазам

ОК

Оно 2

iTunes

30
pack

Вам бонус

ВАЖНО

!!Акция!!

Alien_RageХит недели

RePack

Resident Evil 21

ИГРА 18+

pack

RePack

jed

RePack

fifa19

RePack

Assassins Creed: Odyssey

RePack

NEED FOR SPEED™ PAYBACK

4 сезон

9 сезон

Бесстыжие 9 сезон

Все сериалы

все сериалы на PB.wtf

RePack

FAR CRY 5
  

Открытое море / Alta mar / High Seas / Сезон: 2 / Серии 1-8 из 8 (Лино Эскалера, Карлос Седес) [2019, Драма, криминал, детектив, WEBRip 1080p] MVO [TVShows] pb.wtf

Открытое море через торрент pb.wtf

Размер: 9.68 GB | Добавлен: 1 мес. 24 д. назад | Торрент скачан:11 раз
Скачать  

02-12-2019 15:38 Открытое море Скачать торрент  

Открытое море / Alta mar / High Seas
Год выпуска: 2019
Страна: Испания
Жанр: Драма, криминал, детектив
Продолжительность: ~ 00:40:00
Перевод: Профессиональный (многоголосый) | TVShows
Субтитры: Английские

Режиссер: Лино Эскалера, Карлос Седес

rating

В ролях: Элой Асорин, Ивана Бакеро, Луис Бермехо, Эдуардо Бланко, Антонио Дуран «Моррис», Чики Фернандес, Феликс Гомес, Джон Кортахарена, Даниэль Лунд, Анхела Молина

Описание: Детективная история о расследовании одного убийства. На гигантском корабле, в поисках лучшей жизни плывут две сестры, Каролина и Ева. Вместе с ними на борту находится красавец офицер Николас Салас, оказавшийся не в том месте и не в тот момент. Во время путешествия, героям предстоит немало постараться, чтобы распутать преступление, которое вскоре произойдет на лайнере. Будет убита одна из пассажирок, чье имя не значится в списке поднявшихся на борт. Никто из путешественников, также не может вспомнить её. Для всех очевиден только один факт, убийца до сих пор на корабле. В открытом море он никуда деться не может, и пока он не пойман, все пассажиры находятся в опасности.

Качество: WEBRip 1080p
Формат: MKV

Видео: MPEG-4 AVC, ~ 2490 Кбит/с, 1920x1080
Аудио#1: Русский (AC3, 6 ch, 384 Кбит/с)
Аудио#2: испанский (EAC3, 6 ch, 640 Кбит/с)
скриншот  скриншот  скриншот  скриншот  скриншот  

Общее
Уникальный идентификатор : 46106025399198518692721189314930436897 (0x22AFB28EEBBE7BA794818B79B44C6B21)
Полное имя : D:\Alta.Mar.S02.1080p.TVShows\Alta.Mar.S02E01.1080p.TVShows.mkv
Формат : Matroska
Версия формата : Version 4 / Version 2
Размер файла : 955 Мбайт
Продолжительность : 38 м. 26 с.
Режим общего битрейта : Переменный
Общий поток : 3472 Кбит/сек
Дата кодирования : UTC 2019-12-02 14:04:30
Программа кодирования : mkvmerge v33.1.0 ('Primrose') 64-bit
Библиотека кодирования : libebml v1.3.7 + libmatroska v1.5.0

Видео
Идентификатор : 1
Формат : AVC
Формат/Информация : Advanced Video Codec
Профиль формата : Main@L4
Параметр CABAC формата : Да
Параметр RefFrames формата : 3 кадра
Идентификатор кодека : V_MPEG4/ISO/AVC
Продолжительность : 38 м. 26 с.
Вид битрейта : Переменный
Битрейт : 2490 Кбит/сек
Максимальный битрейт : 3735 Кбит/сек
Ширина : 1920 пикселей
Высота : 1080 пикселей
Соотношение сторон : 16:9
Режим частоты кадров : Постоянный
Частота кадров : 25,000 кадров/сек
Цветовое пространство : YUV
Субдискретизация насыщенности : 4:2:0
Битовая глубина : 8 бит
Тип развёртки : Прогрессивная
Бит/(Пиксели*Кадры) : 0.048
Размер потока : 672 Мбайт (70%)
Библиотека кодирования : x264 core 148 r2715 7e75228
Настройки программы : cabac=1 / ref=3 / deblock=1:0:0 / analyse=0x1:0x111 / me=umh / subme=10 / psy=1 / psy_rd=1.00:0.00 / mixed_ref=1 / me_range=24 / chroma_me=1 / trellis=2 / 8x8dct=0 / cqm=0 / deadzone=21,11 / fast_pskip=1 / chroma_qp_offset=-2 / threads=8 / lookahead_threads=1 / sliced_threads=0 / nr=0 / decimate=1 / interlaced=0 / bluray_compat=0 / stitchable=1 / constrained_intra=0 / bframes=2 / b_pyramid=0 / b_adapt=2 / b_bias=0 / direct=3 / weightb=1 / open_gop=0 / weightp=2 / keyint=250 / keyint_min=25 / scenecut=0 / intra_refresh=0 / rc_lookahead=50 / rc=2pass / mbtree=1 / bitrate=2490 / ratetol=1.0 / qcomp=0.50 / qpmin=6 / qpmax=51 / qpstep=4 / cplxblur=20.0 / qblur=0.5 / vbv_maxrate=3735 / vbv_bufsize=4980 / nal_hrd=vbr / filler=0 / ip_ratio=1.40 / aq=1:1.00
Default : Да
Forced : Нет

Аудио #1
Идентификатор : 2
Формат : AC-3
Формат/Информация : Audio Coding 3
Расширение режима : CM (complete main)
Параметр Endianness формата : Big
Идентификатор кодека : A_AC3
Продолжительность : 38 м. 26 с.
Вид битрейта : Постоянный
Битрейт : 384 Кбит/сек
Каналы : 6 каналов
Расположение каналов : Front: L C R, Side: L R, LFE
Частота : 48,0 КГц
Частота кадров : 31,250 кадров/сек (1536 spf)
Метод сжатия : С потерями
Размер потока : 106 Мбайт (11%)
Заголовок : TVShows
Язык : Russian
Default : Да
Forced : Да

Аудио #2
Идентификатор : 3
Формат : E-AC-3
Формат/Информация : Audio Coding 3
Параметр Endianness формата : Big
Идентификатор кодека : A_EAC3
Продолжительность : 38 м. 26 с.
Вид битрейта : Постоянный
Битрейт : 640 Кбит/сек
Каналы : 6 каналов
Расположение каналов : Front: L C R, Side: L R, LFE
Частота : 48,0 КГц
Частота кадров : 187,500 кадров/сек (256 spf)
Метод сжатия : С потерями
Размер потока : 176 Мбайт (18%)
Заголовок : Original
Язык : Spanish
Default : Нет
Forced : Нет

Текст
Идентификатор : 4
Формат : UTF-8
Идентификатор кодека : S_TEXT/UTF8
Идентификатор кодека/Информация : UTF-8 Plain Text
Продолжительность : 36 м. 42 с.
Битрейт : 65 бит/сек
ElementCount : 615
Размер потока : 17,5 Кбайт (0%)
Заголовок : English
Язык : English
Default : Нет
Forced : Нет

pb.wtf



Скачать Открытое море через торрент https://a.radikal.ru/a22/1905/a0/87798ae895f6.jpg Скачать фильм Открытое море через торрент бесплантно в хорошем качестве Описание: Детективная история о расследовании одного убийства. На гигантском корабле, в поисках лучшей жизни плывут две сестры, Каролина и ... 10 10 3
Торрент: Зарегистрирован [2019-12-02 15:38] · скачан: 11 раз
Статус: √ проверено
Размер: 9.68 GB
Как cкачать? Как скачать Открытое море через торрент | qTorrent

% Раздел Тема Автор DL S | L
Зарубежные сериалы [ 5.66 GB ] Открытое море / Alta mar / High Seas / Сезон: 2 / Серии 1-8 из 8 [2019 WEBRip] MVO [TVShows] bober100 Скачать
1 | 0
Зарубежные сериалы [ 5.47 GB ] Открытое море / Alta Mar / High Seas / Сезон: 2 / Серии: 1-8 из 8 [2019 WEBRip 720p] [MVO] killermax2013 Скачать
1 | 0
Зарубежные сериалы [ 3.85 GB ] Открытое море / Alta Mar / High Seas / Сезон: 2 / Серии: 1-8 из 8 [2019 WEBRip] [DVO] killermax2013 Скачать
1 | 0
Зарубежные сериалы [ 7.99 GB ] Открытое море / Alta Mar / High Seas / Сезон: 2 / Серии: 1-8 из 8 [2019 WEBRip 720p] [DVO] killermax2013 Скачать
1 | 0

28-11-2019 20:33  

Отключить всю рекламу на сайте

    Дорогой пользователь! Огромная просьба, поблагодарите релизера, оцените раздачу и оставьте свои комментарий, если Вы скачали Открытое море через торрент бесплатно! Внесите свою лепту в развитие PiratBit!
    Комментировать посты могут только пользователи прошедшие не сложную регистрацию
    Показать сообщения:    

    Открытое море через торрент
    Скачать бесплатно Открытое море
    Открытое море скачать торрент
    Открытое море смотреть онлайн
    Cкачать фильм Открытое море бесплатно
    Открытое море скачать торрент в хорошем качестве
    Открытое море смотреть онлайн бесплатно в хорошем качестве


    Вы не можете начинать темы
    Вы не можете отвечать на сообщения
    Вы не можете редактировать свои сообщения
    Вы не можете удалять свои сообщения
    Вы не можете голосовать в опросах
    Вы не можете прикреплять файлы к сообщениям
    Вы можете скачивать файлы