Ссылка на приватное зеркало нашего сайта всего за 1$. Внимание количество ограничено!!!

2 сезон

iTunes

1 сезон

1

iTunes

iTunes

iTunes

1 сезон

RePack

30

ИГРА 18+

pack

ВАЖНО

!!Акция!!

Alien_RageХит недели

RePack

MK11
pack

Забери бонус

RePack

jed

!!Акция!!

Alien_Rage

RePack

fifa19

RePack

Assassins Creed: Odyssey

RePack

NEED FOR SPEED™ PAYBACK

4 сезон

9 сезон

Бесстыжие 9 сезон

Все сериалы

все сериалы на PB.wtf

RePack

FAR CRY 5
  

Тест на беременность / Профессия - акушер / Сезон: 2 / Серии: 1-16 из 16 (Клим Шипенко, Олег Асадулин, Антон Сиверс) [2019, Мелодрама, медицина, HDTVRip] pb.wtf

Тест на беременность через торрент pb.wtf

Размер: 9.49 GB | Добавлен: 10 мес. назад | Торрент скачан:78 раз
Скачать  

02-12-2019 17:22 Тест на беременность Скачать торрент  

Тест на беременность / Профессия - акушер
Год выпуска: 2019
Страна: Россия
Жанр: Мелодрама, медицина
Продолжительность: ~ 00:50:00 серия
Перевод: Не требуется
Субтитры: отсутствуют

Режиссер: Клим Шипенко, Олег Асадулин, Антон Сиверс



В ролях: Светлана Иванова, Кирилл Гребенщиков, Данила Дунаев, Лянка Грыу, Анна Каменкова, Александр Яцко, Анна Пескова, Маргарита Адаева, Татьяна Рассказова, Александр Нестеров (III), Сергей Мигицко, Артур Ваха, Стелла Ильницкая, Кирилл Варакса, Серафима Огарёва, Агния Кузнецова, Александр Строев, Владимир Кошевой, Андрей Ургант, Юлия Галкина, Ола Кейру, Олег Лебедев-Бовольский

Описание: Наташа Бахметьева живет с Андреем и годовалым, болезненным сыном Мишкой, пробуя себя в непривычной роли домохозяйки и матери. Она приезжает в Медцентр поздравить «Мишу» с юбилеем и видит, как у ворот роддома КАМАЗ сбивает беременную женщину. Бахметьева спасает пациентку, но не ребенка, на сутки вынужденно зависает на работе и узнает, что в отделении за несколько дней умерло семь новорожденных. Информация о младенческом море просачивается в прессу, и в Центр приезжает комиссия, в состав которой входит когда-то уволенная Наташей Инга Елизарова. С ее подачи главврача Саморядова отстраняют, а на его место назначают Колмогорова, который приехал в Питер за Наташей и сыном. Экс-любовник уговаривает Бахметьеву вернуться на работу – ради спасения Медцентра, который с подачи Колмогорова могут закрыть, и это вбивает клин между Наташей и Андреем. Напряженность в их отношениях усиливается еще больше, когда в отделении появляются их «бывшие» Руслан и Ольшанская, переживающие бурный роман. А происходящее между ними вдруг начинает вызывать у Наташи весьма неоднозначные чувства. Плюс ко всему – в Андрея влюбляется протеже Колмогорова, интерн Женя Митрич, которую за острый ум, недюжинные знания и смелость в обсервации тут же нарекают Бахметьевой 2.0.

Качество: HDTVRip
Формат: AVI

Видео: XviD, ~ 1600 Кбит/с, 720х400, 25 кадр/с
Аудио: Русский (AC3, 2 ch, 192 Кбит/с)
скриншот  скриншот  скриншот  скриншот  

Общее
Полное имя : D:Test na beremennost-2.HDTVRip.GeneralFilm1.Test na beremennost-2.HDTVRip.GeneralFilm.avi
Формат : AVI
Формат/Информация : Audio Video Interleave
Размер файла : 629 Мбайт
Продолжительность : 48 м.
Общий поток : 1802 Кбит/сек

Видео
Идентификатор : 0
Формат : MPEG-4 Visual
Профиль формата : Advanced Simple@L5
Параметр BVOP формата : 1
Параметр QPel формата : Нет
Параметр GMC формата : Без точки перехода
Параметр матрицы формата : Выборочная
Идентификатор кодека : XVID
Идентификатор кодека/Подсказка : XviD
Продолжительность : 48 м.
Битрейт : 1598 Кбит/сек
Ширина : 720 пикселей
Высота : 400 пикселей
Соотношение сторон : 16:9
Частота кадров : 25,000 кадров/сек
Цветовое пространство : YUV
Субдискретизация насыщенности : 4:2:0
Битовая глубина : 8 бит
Тип развёртки : Прогрессивная
Метод сжатия : С потерями
Бит/(Пиксели*Кадры) : 0.222
Размер потока : 558 Мбайт (89%)
Библиотека кодирования : XviD 1.2.1 (UTC 2008-12-04)

Аудио
Идентификатор : 1
Формат : AC-3
Формат/Информация : Audio Coding 3
Расширение режима : CM (complete main)
Параметр Endianness формата : Big
Идентификатор кодека : 2000
Продолжительность : 48 м.
Вид битрейта : Постоянный
Битрейт : 192 Кбит/сек
Каналы : 2 канала
Расположение каналов : Front: L R
Частота : 48,0 КГц
Битовая глубина : 16 бит
Метод сжатия : С потерями
Размер потока : 67,0 Мбайт (11%)
Выравнивание : Соединение по промежуткам
Продолжительность промежутка : 32 мс. (0,80 видеокадр)

Раздача ведётся путём добавления новых серий, при каждом добавлении создаётся новый торрент. Чтобы начать докачку новой серии, пользователям необходимо сделать следующее:

- Остановить скачивание.
- Удалить старый торрент у себя из клиента (старые серии удалять не надо).
- Скачать новый торрент и запустить его у себя в клиенте вместо старого, при этом указать клиенту путь в старую папку куда и должно происходить скачивание новых серий.

Ваш клиент при этом должен произвести хеширование (проверку) старой папки (если не производит сам - помогите ему сделать это), и будет докачивать только те серии которых у вас ещё нет. Старые серии при этом не удаляются, а продолжают раздаваться!
Если вы уже удалили старые серии, то предотвратить повторную закачку старых серий можно, отжав галочку в соответствующих местах при запуске нового торрента. По возможности, желательно не удалять старые серии как можно дольше, чтобы релизер не столько продолжал раздавать старые серии, а смог сконцентрироваться на новых.
pb.wtf



Скачать Тест на беременность через торрент http://c.radikal.ru/c19/1912/b2/25735037345e.jpg Скачать фильм Тест на беременность через торрент бесплантно в хорошем качестве Описание: Наташа Бахметьева живет с Андреем и годовалым, болезненным сыном Мишкой, пробуя себя в непривычной роли домохозяйки и матери. Она ... 10 10 3
Торрент: Зарегистрирован [2019-12-12 17:22] · скачан: 78 раз
Статус: √ проверено
Размер: 9.49 GB
Как cкачать? Как скачать Тест на беременность через торрент | qTorrent

% Раздел Тема Автор DL S | L
Наши сериалы [ 11.55 GB ] Тест на беременность / Профессия - акушер / Сезон: 2 / Серии: 1-16 из 16 [2019 Мело медицина HDTVRip-AVC] bober100 Скачать
1 | 0
Наши сериалы [ 19.44 GB ] Тест на беременность / Профессия - акушер / Сезон: 2 / Серии: 1-16 из 16 [2019 Мело медицина HDTVRip 720p] bober100 Скачать
1 | 1
Наши сериалы [ 9.37 GB ] Тест на беременность / Профессия - акушер / Сезон: 2 / Серии: 1-16 из 16 [2019 Мело медицина SATRip] bober100 Скачать
1 | 0
Наши сериалы [ 34.23 GB ] Тест на беременность / Профессия - акушер / Сезон: 2 / Серии: 1-16 из 16 [2019 Мело медицина HDTV 1080i] bober100 Скачать
1 | 0

28-11-2019 20:33  

Отключить всю рекламу на сайте

    Дорогой пользователь! Огромная просьба, поблагодарите релизера, оцените раздачу и оставьте свои комментарий, если Вы скачали Тест на беременность через торрент бесплатно! Внесите свою лепту в развитие PiratBit!
    Комментировать посты могут только пользователи прошедшие не сложную регистрацию
    Показать сообщения:    

    Тест на беременность через торрент
    Скачать бесплатно Тест на беременность
    Тест на беременность скачать торрент
    Тест на беременность смотреть онлайн
    Cкачать фильм Тест на беременность бесплатно
    Тест на беременность скачать торрент в хорошем качестве
    Тест на беременность смотреть онлайн бесплатно в хорошем качестве


    Вы не можете начинать темы
    Вы не можете отвечать на сообщения
    Вы не можете редактировать свои сообщения
    Вы не можете удалять свои сообщения
    Вы не можете голосовать в опросах
    Вы не можете прикреплять файлы к сообщениям
    Вы можете скачивать файлы