новый адрес
Ссылка на приватное зеркало всего за 1$. Внимание количество ограничено!!!

iTunes

1+1

iTunes

мы

WEB-DL

1

iTunes

Чернобыль

iTunes

Ральф против интернета

Лицензия

ПШазам

Лицензия

Оно 2

Лицензия

30
pack

Вам бонус

ВАЖНО

!!Акция!!

Alien_RageХит недели

RePack

Resident Evil 21

ИГРА 18+

pack

RePack

jed

!!Акция!!

Alien_Rage

RePack

fifa19

RePack

Assassins Creed: Odyssey

RePack

NEED FOR SPEED™ PAYBACK

3 сезон

9 сезон

Бесстыжие 9 сезон

Все сериалы

все сериалы на PB.wtf

RePack

FAR CRY 5
Ребята, катастрофически не хватает 1900р. для оплаты серверов за Октябрь (всвязи с блокировками трафик упал в 3 раза), 1-2р., выручайте.
  

Харли Квинн / Harley Quinn / Сезон: 1 / Серии: 1- из 13 (Сесилия Аранович, Мэтт Гарофало, Фрэнк Марино) [2019, Мультсериал, фантастика, фэнтези, боевик, комедия, криминал, детектив, WEB-DLRip] MVO [Jaskier] pb.wtf

Харли Квинн через торрент pb.wtf

Размер: 274 MB | Добавлен: 7 д. назад | Торрент скачан:2 раза
Скачать  

02-12-2019 21:06 Харли Квинн Скачать торрент  

Харли Квинн / Harley Quinn
Год выпуска: 2019
Страна: США
Жанр: Мультсериал, фантастика, фэнтези, боевик, комедия, криминал, детектив
Продолжительность: ~ 00:22:00
Перевод: Профессиональный (многоголосый) | Jaskier
Субтитры: отсутствуют

Режиссер: Сесилия Аранович, Мэтт Гарофало, Фрэнк Марино

rating

В ролях: Кейли Куоко, Лэйк Белл, Алан Тьюдик, Дидрих Бадер, Джим Рэш, Рон Фанчес, Кристофер Мелони, Тони Хейл, Дж.Б. Смув, Джейсон Александер

Описание: Харли Квинн разорвала отношения с Джокером и теперь пытается самостоятельно стать королевой преступного мира Готэма.

Качество: WEB-DLRip
Формат: AVI

Видео: XviD, ~ 1400 kbps, 720x400, 23.976 fps
Аудио#1: MP3, 48,0 КГц, 2 ch, 128 kbps - RUS
Аудио#2: MP3, 48,0 КГц, 2 ch, 128 kbps - ENG
скриншот  скриншот  скриншот  скриншот  скриншот  

Общее
Полное имя : D:\Harley.Quinn. Season 1 (400p l Jaskier)\Harley.Quinn.S01E01.400p.Jaskier.avi
Формат : AVI
Формат/Информация : Audio Video Interleave
Размер файла : 274 Мбайт
Продолжительность : 22 м. 55 с.
Общий поток : 1670 Кбит/сек
Программа кодирования : VirtualDubMod 1.5.10.3 | www.virtualdub-fr.org || (build 2550/release)
Библиотека кодирования : VirtualDubMod build 2550/release

Видео
Идентификатор : 0
Формат : MPEG-4 Visual
Профиль формата : Advanced Simple@L5
Параметр BVOP формата : 2
Параметр QPel формата : Нет
Параметр GMC формата : Без точки перехода
Параметр матрицы формата : Выборочная
Идентификатор кодека : XVID
Идентификатор кодека/Подсказка : XviD
Продолжительность : 22 м. 55 с.
Битрейт : 1400 Кбит/сек
Ширина : 720 пикселей
Высота : 400 пикселей
Соотношение сторон : 16:9
Частота кадров : 23,976 (23976/1000) кадра/сек
Цветовое пространство : YUV
Субдискретизация насыщенности : 4:2:0
Битовая глубина : 8 бит
Тип развёртки : Прогрессивная
Метод сжатия : С потерями
Бит/(Пиксели*Кадры) : 0.203
Размер потока : 229 Мбайт (84%)
Библиотека кодирования : XviD 73

Аудио #1
Идентификатор : 1
Формат : MPEG Audio
Версия формата : Version 1
Профиль формата : Layer 3
Режим : Joint stereo
Расширение режима : MS Stereo
Идентификатор кодека : 55
Идентификатор кодека/Подсказка : MP3
Продолжительность : 22 м. 55 с.
Вид битрейта : Постоянный
Битрейт : 128 Кбит/сек
Каналы : 2 канала
Частота : 48,0 КГц
Метод сжатия : С потерями
Размер потока : 21,0 Мбайт (8%)
Выравнивание : Соединение по промежуткам
Продолжительность промежутка : 42 мс. (1,00 видеокадр)
Время предзагрузки промежутка : 504 мс.

Аудио #2
Идентификатор : 2
Формат : MPEG Audio
Версия формата : Version 1
Профиль формата : Layer 3
Режим : Joint stereo
Расширение режима : MS Stereo
Идентификатор кодека : 55
Идентификатор кодека/Подсказка : MP3
Продолжительность : 22 м. 55 с.
Вид битрейта : Постоянный
Битрейт : 128 Кбит/сек
Каналы : 2 канала
Частота : 48,0 КГц
Метод сжатия : С потерями
Размер потока : 21,0 Мбайт (8%)
Выравнивание : Соединение по промежуткам
Продолжительность промежутка : 42 мс. (1,00 видеокадр)
Время предзагрузки промежутка : 504 мс.

Внимание! Раздача ведётся путём добавления новых серий; при каждом добавлении создаётся новый торрент. Чтобы начать докачку новой серии, пользователям необходимо сделать следующее:
(1) остановить скачивание,
(2) удалить старый торрент у себя из клиента (старые серии удалять не надо),
(3) скачать новый торрент и запустить его у себя в клиенте вместо старого, при этом указать клиенту путь в старую папку куда и должно происходить скачивание новых серий.

Ваш клиент при этом должен произвести хеширование (проверку) старой папки (если не производит сам - помогите ему сделать это), и будет докачивать только те серии которых у вас ещё нет. Старые серии при этом не удаляются, а продолжают раздаваться!

Eсли вы уже удалили старые серии, то предотвратить повторную закачку старых серий можно, отжав галочку в соответствующих местах при запуске нового торрента. По возможности, желательно не удалять старые серии как можно дольше чтобы релизёр не столько продолжал раздавать старые серии, а смог сконцентрироваться на новых.
pb.wtf



Скачать Харли Квинн через торрент https://i111.fastpic.ru/big/2019/1202/ec/7104640bf2e410eb94214359559785ec.png Скачать фильм Харли Квинн через торрент бесплантно в хорошем качестве Описание: Харли Квинн разорвала отношения с Джокером и теперь пытается самостоятельно стать королевой преступного мира ... 10 10 2
Торрент: Зарегистрирован [2019-12-02 21:06] · скачан: 2 раз
Статус: √ проверено
Размер: 274 MB
Как cкачать? Как скачать Харли Квинн через торрент | qTorrent

% Раздел Тема Автор DL S | L
Мультсериалы [ 425 MB ] Харли Квинн / Harley Quinn / Сезон: 1 / Серии: 1- из 13 [2019 WEB-DLRip] DUB [The Kitchen Russia] bober100 Скачать
2 | 0
Мультсериалы [ 3.65 GB ] Харли Квинн / Harley Quinn / Сезон: 1 / Серии: 1-2 из 13 [2019 UHD WEB-DL 2160p] MVO [TVShows] bober100 Скачать
1 | 0
Мультсериалы [ 1.29 GB ] Харли Квинн / Harley Quinn / Сезон: 1 / Серии: 1-2 из 13 [2019 WEB-DL 720p] MVO [TVShows] bober100 Скачать
2 | 0
Мультсериалы [ 1.93 GB ] Харли Квинн / Harley Quinn / Сезон: 1 / Серии: 1-2 из 13 [2019 WEB-DL 1080p] MVO [TVShows] bober100 Скачать
1 | 0
Мультсериалы [ 943 MB ] Харли Квинн / Harley Quinn / Сезон: 1 / Серии: 1- из 13 [2019 WEB-DL 1080p] MVO [Jaskier] bober100 Скачать
1 | 0
Мультсериалы [ 617 MB ] Харли Квинн / Harley Quinn / Сезон: 1 / Серии: 1- из 13 [2019 WEB-DL 720p] MVO [Jaskier] bober100 Скачать
1 | 0
Мультсериалы [ 659 MB ] Харли Квинн / Harley Quinn / Сезон: 1 / Серии: 1- из 13 [2019 для взрослых WEB-DL 720p] + [MVO] killermax2013 Скачать
4 | 0

28-11-2019 20:33  

Отключить всю рекламу на сайте

    Дорогой пользователь! Огромная просьба, поблагодарите релизера, оцените раздачу и оставьте свои комментарий, если Вы скачали Харли Квинн через торрент бесплатно! Внесите свою лепту в развитие PiratBit!
    Комментировать посты могут только пользователи прошедшие не сложную регистрацию
    Показать сообщения:    

    Харли Квинн через торрент
    Скачать бесплатно Харли Квинн
    Харли Квинн скачать торрент
    Харли Квинн смотреть онлайн
    Cкачать фильм Харли Квинн бесплатно
    Харли Квинн скачать торрент в хорошем качестве
    Харли Квинн смотреть онлайн бесплатно в хорошем качестве


    Вы не можете начинать темы
    Вы не можете отвечать на сообщения
    Вы не можете редактировать свои сообщения
    Вы не можете удалять свои сообщения
    Вы не можете голосовать в опросах
    Вы не можете прикреплять файлы к сообщениям
    Вы можете скачивать файлы