новый адрес
Ссылка на приватное зеркало всего за 1$. Внимание количество ограничено!!!

iTunes

1+1

iTunes

мы

WEB-DL

1

iTunes

Чернобыль

iTunes

Ральф против интернета

Лицензия

ПШазам

Лицензия

Оно 2

Лицензия

30
pack

Вам бонус

ВАЖНО

!!Акция!!

Alien_RageХит недели

RePack

Resident Evil 21

ИГРА 18+

pack

RePack

jed

!!Акция!!

Alien_Rage

RePack

fifa19

RePack

Assassins Creed: Odyssey

RePack

NEED FOR SPEED™ PAYBACK

3 сезон

9 сезон

Бесстыжие 9 сезон

Все сериалы

все сериалы на PB.wtf

RePack

FAR CRY 5
Ребята, катастрофически не хватает 1900р. для оплаты серверов за Октябрь (всвязи с блокировками трафик упал в 3 раза), 1-2р., выручайте.
  

Харли Квинн / Harley Quinn / Сезон: 1 / Серии: 1- из 13 (Сесилия Аранович, Мэтт Гарофало, Фрэнк Марино) [2019, Мультсериал, фантастика, фэнтези, боевик, комедия, криминал, детектив, WEB-DL 1080p] MVO [Jaskier] pb.wtf

Харли Квинн через торрент pb.wtf

Раздают: 1 [ 0 KB/s ]
Размер: 943 MB | Добавлен: 7 д. назад | Торрент скачан:4 раза
Скачать  

02-12-2019 21:13 Харли Квинн Скачать торрент  

Харли Квинн / Harley Quinn
Год выпуска: 2019
Страна: США
Жанр: Мультсериал, фантастика, фэнтези, боевик, комедия, криминал, детектив
Продолжительность: ~ 00:22:00
Перевод: Профессиональный (многоголосый) | Jaskier
Субтитры: отсутствуют

Режиссер: Сесилия Аранович, Мэтт Гарофало, Фрэнк Марино

rating

В ролях: Кейли Куоко, Лэйк Белл, Алан Тьюдик, Дидрих Бадер, Джим Рэш, Рон Фанчес, Кристофер Мелони, Тони Хейл, Дж.Б. Смув, Джейсон Александер

Описание: Харли Квинн разорвала отношения с Джокером и теперь пытается самостоятельно стать королевой преступного мира Готэма.

Качество: WEB-DL 1080p
Формат: MKV

Видео: X264, ~ 4800 kbps, 1920x1080, 23.976 fps
Аудио#1: AC3, 48,0 КГц, 6 ch, 384 kbps - RUS
Аудио#2: AC3, 48,0 КГц, 6 ch, 384 kbps - ENG
скриншот  скриншот  скриншот  

Общее
Уникальный идентификатор : 213490677341948412424843939231404101448 (0xA09CCF0FBF59AC88963F014A76FB8F48)
Полное имя : D:\Harley.Quinn. Season 1 (1080p l Jaskier)\Harley.Quinn.S01E01.1080p.Jaskier.mkv
Формат : Matroska
Версия формата : Version 2
Размер файла : 943 Мбайт
Продолжительность : 22 м. 55 с.
Общий поток : 5754 Кбит/сек
Дата кодирования : UTC 2019-12-02 20:15:48
Программа кодирования : mkvmerge v7.8.0 ('River Man') 32bit built on Apr 3 2015 12:11:22
Библиотека кодирования : libebml v1.3.1 + libmatroska v1.4.2

Видео
Идентификатор : 1
Формат : AVC
Формат/Информация : Advanced Video Codec
Профиль формата : Baseline@L4
Параметр CABAC формата : Нет
Параметр RefFrames формата : 3 кадра
Идентификатор кодека : V_MPEG4/ISO/AVC
Продолжительность : 22 м. 55 с.
Битрейт : 4872 Кбит/сек
Ширина : 1920 пикселей
Высота : 1080 пикселей
Соотношение сторон : 16:9
Режим частоты кадров : Постоянный
Частота кадров : 23,976 (24000/1001) кадра/сек
Цветовое пространство : YUV
Субдискретизация насыщенности : 4:2:0
Битовая глубина : 8 бит
Тип развёртки : Прогрессивная
Бит/(Пиксели*Кадры) : 0.098
Размер потока : 799 Мбайт (85%)
Библиотека кодирования : Zencoder Video Encoding System
Default : Да
Forced : Нет
Цветовой диапазон : Limited
Основные цвета : BT.709
Характеристики трансфера : BT.709
Коэффициенты матрицы : BT.709

Аудио #1
Идентификатор : 2
Формат : AC-3
Формат/Информация : Audio Coding 3
Расширение режима : CM (complete main)
Параметр Endianness формата : Big
Идентификатор кодека : A_AC3
Продолжительность : 22 м. 55 с.
Вид битрейта : Постоянный
Битрейт : 384 Кбит/сек
Каналы : 6 каналов
Расположение каналов : Front: L C R, Side: L R, LFE
Частота : 48,0 КГц
Частота кадров : 31,250 кадров/сек (1536 spf)
Метод сжатия : С потерями
Размер потока : 63,0 Мбайт (7%)
Язык : Russian
Default : Да
Forced : Нет

Аудио #2
Идентификатор : 3
Формат : AC-3
Формат/Информация : Audio Coding 3
Расширение режима : CM (complete main)
Параметр Endianness формата : Big
Идентификатор кодека : A_AC3
Продолжительность : 22 м. 55 с.
Вид битрейта : Постоянный
Битрейт : 384 Кбит/сек
Каналы : 6 каналов
Расположение каналов : Front: L C R, Side: L R, LFE
Частота : 48,0 КГц
Частота кадров : 31,250 кадров/сек (1536 spf)
Метод сжатия : С потерями
Размер потока : 63,0 Мбайт (7%)
Язык : English
Default : Нет
Forced : Нет

Внимание! Раздача ведётся путём добавления новых серий; при каждом добавлении создаётся новый торрент. Чтобы начать докачку новой серии, пользователям необходимо сделать следующее:
(1) остановить скачивание,
(2) удалить старый торрент у себя из клиента (старые серии удалять не надо),
(3) скачать новый торрент и запустить его у себя в клиенте вместо старого, при этом указать клиенту путь в старую папку куда и должно происходить скачивание новых серий.

Ваш клиент при этом должен произвести хеширование (проверку) старой папки (если не производит сам - помогите ему сделать это), и будет докачивать только те серии которых у вас ещё нет. Старые серии при этом не удаляются, а продолжают раздаваться!

Eсли вы уже удалили старые серии, то предотвратить повторную закачку старых серий можно, отжав галочку в соответствующих местах при запуске нового торрента. По возможности, желательно не удалять старые серии как можно дольше чтобы релизёр не столько продолжал раздавать старые серии, а смог сконцентрироваться на новых.
pb.wtf



Скачать Харли Квинн через торрент https://i111.fastpic.ru/big/2019/1202/ec/7104640bf2e410eb94214359559785ec.png Скачать фильм Харли Квинн через торрент бесплантно в хорошем качестве Описание: Харли Квинн разорвала отношения с Джокером и теперь пытается самостоятельно стать королевой преступного мира ... 10 10 2
Торрент: Зарегистрирован [2019-12-02 21:13] · скачан: 4 раз
Статус: √ проверено
Размер: 943 MB
Как cкачать? Как скачать Харли Квинн через торрент | qTorrent

% Раздел Тема Автор DL S | L
Мультсериалы [ 425 MB ] Харли Квинн / Harley Quinn / Сезон: 1 / Серии: 1- из 13 [2019 WEB-DLRip] DUB [The Kitchen Russia] bober100 Скачать
2 | 0
Мультсериалы [ 3.65 GB ] Харли Квинн / Harley Quinn / Сезон: 1 / Серии: 1-2 из 13 [2019 UHD WEB-DL 2160p] MVO [TVShows] bober100 Скачать
1 | 0
Мультсериалы [ 1.29 GB ] Харли Квинн / Harley Quinn / Сезон: 1 / Серии: 1-2 из 13 [2019 WEB-DL 720p] MVO [TVShows] bober100 Скачать
2 | 0
Мультсериалы [ 1.93 GB ] Харли Квинн / Harley Quinn / Сезон: 1 / Серии: 1-2 из 13 [2019 WEB-DL 1080p] MVO [TVShows] bober100 Скачать
1 | 0
Мультсериалы [ 617 MB ] Харли Квинн / Harley Quinn / Сезон: 1 / Серии: 1- из 13 [2019 WEB-DL 720p] MVO [Jaskier] bober100 Скачать
1 | 0
Мультсериалы [ 274 MB ] Харли Квинн / Harley Quinn / Сезон: 1 / Серии: 1- из 13 [2019 WEB-DLRip] MVO [Jaskier] bober100 Скачать
1 | 0
Мультсериалы [ 659 MB ] Харли Квинн / Harley Quinn / Сезон: 1 / Серии: 1- из 13 [2019 для взрослых WEB-DL 720p] + [MVO] killermax2013 Скачать
4 | 0

28-11-2019 20:33  

Отключить всю рекламу на сайте

    Дорогой пользователь! Огромная просьба, поблагодарите релизера, оцените раздачу и оставьте свои комментарий, если Вы скачали Харли Квинн через торрент бесплатно! Внесите свою лепту в развитие PiratBit!
    Комментировать посты могут только пользователи прошедшие не сложную регистрацию
    Показать сообщения:    

    Харли Квинн через торрент
    Скачать бесплатно Харли Квинн
    Харли Квинн скачать торрент
    Харли Квинн смотреть онлайн
    Cкачать фильм Харли Квинн бесплатно
    Харли Квинн скачать торрент в хорошем качестве
    Харли Квинн смотреть онлайн бесплатно в хорошем качестве


    Вы не можете начинать темы
    Вы не можете отвечать на сообщения
    Вы не можете редактировать свои сообщения
    Вы не можете удалять свои сообщения
    Вы не можете голосовать в опросах
    Вы не можете прикреплять файлы к сообщениям
    Вы можете скачивать файлы