Присоединяйтесь к нам в Telegram!, здесь всегда актуальный адрес сайта, оперативная поддержка и многое другое!!

>

5.9

iTunes

7.4

iTunes

9.4

1 сезон

1

7.4

2 сезон

7.2

iTunes

7.3

1 сезон

13

6.1

iTunes

8.3

GOG

30

ULTIMATE

pack

9.9

Лицензия

ВАЖНО

ИГРА 18+

pack

7.3

RePack

MK11

7.7

RePack

jed

7.8

RePack

fifa19

8.5

RePack

RDR2

RePack

NEED FOR SPEED™ PAYBACK

5 сезон

9 сезон

Бесстыжие 9 сезон

Все сериалы

все сериалы на PB.wtf

RePack

FAR CRY 5

Anonymous, доброе утро, мы катастрофически не успеваем собрать деньги на оплату серверов, помогите нам пожалуйста 5,10,15р., для нас важна любая помощь . В качестве благодарности мы отключим Вам всю рекламу на сайте (укажите свой ник в строку Ваше имя)!

×
  
Magnet ссылка

Tavinest _ Марс или Венера? [2019 г., Pop, DVDRip, Не требуется Русский] pb.wtf

Tavinest _ Марс или Венера? через торрент pb.wtf

Размер: 35 MB | Добавлен: 1 год 11 мес. назад | Торрент скачан:9 раз
Смотреть онлайн Tavinest _ Марс или Венера? | Скачать    Ребята, помогите собрать деньги на оплату серверов!!!

02-12-2019 22:22 Tavinest _ Марс или Венера? Скачать торрент  

Tavinest _ Марс или Венера?
Год выпуска: 2019
Страна: Россия
Жанр: Pop
Продолжительность: 00:03:04
Перевод: Не требуется Русский
Тип релиза: Лицензия

Описание: Трехминутный ролик для душевного настроения

Доп. информация: Автор и исполнитель: Tavinest

Качество: DVDRip
Формат: MP4
Видео кодек: H.264
Аудио кодек: AAC
скриншот   скриншот  

Общее
Полное имя : Tavinest _ Марс или Венера?
Формат : MPEG-4
Профиль формата : Base Media
Идентификатор кодека : isom (isom/iso2/avc1/mp41)
Размер файла : 220 Мбайт
Продолжительность : 3 м. 04 с.
Общий поток : 1500 Кбит/сек
Программа кодирования : Lavf57.71.100

Видео
Идентификатор : 1
Формат : AVC
Формат/Информация : Advanced Video Codec
Профиль формата : Main@L4
Настройки формата : CABAC / 2 Ref Frames
Параметр CABAC формата : Да
Параметр RefFrames формата : 2 кадра
Идентификатор кодека : avc1
Идентификатор кодека/Информация : Advanced Video Coding
Продолжительность : 3 м. 04 с.
Битрейт : 1500 Кбит/сек
Ширина : 540 пикселей
Высота : 720 пикселей
Соотношение сторон : 3:4
Режим частоты кадров : Постоянный
Частота кадров : 30 (30000/1001) кадров/сек
Цветовое пространство : YUV
Субдискретизация насыщенности : 4:2:0
Битовая глубина : 8 бит
Тип развёртки : Прогрессивная
Бит/(Пиксели*Кадры) : 0.139
Размер потока : 216 Мбайт (98%)

Аудио
Идентификатор : 2
Формат : AAC
Формат/Информация : Advanced Audio Codec
Профиль формата : LC
Идентификатор кодека : mp4a-40-2
Продолжительность : 3 м. 04 с.
Вид битрейта : Постоянный
Битрейт : 192 Кбит/сек
Каналы : 2 канала
Расположение каналов : Front: L R
Частота : 44,1 КГц
Частота кадров : 43,066 кадра/сек (1024 SPF)
Метод сжатия : С потерями
Размер потока : 4,77 Мбайт (2%)
Default : Да
AlternateGroup/String : 1

pb.wtf



Скачать Tavinest _ Марс или Венера? через торрент https://pic1.kartinco.top/images/12/rnex6.jpg Скачать, смотреть онлайн Tavinest _ Марс или Венера? [2019 г., Pop, DVDRip, Не требуется Русский] бесплантно в хорошем качестве Описание: Трехминутный ролик для душевного настроенияДоп. информация: Автор и исполнитель: ... 10 10 1
Торрент: Зарегистрирован [2019-12-02 22:22] · скачан: 9 раз
Статус: √ проверено
Размер: 35 MB
Как cкачать? Как скачать Tavinest _ Марс или Венера? через торрент | UTorrent

28-11-2019 20:33  

Отключить всю рекламу на сайте

    Дорогой пользователь! Огромная просьба, поблагодарите релизера, оцените раздачу и оставьте свои комментарий, если Вы скачали Tavinest _ Марс или Венера? через торрент бесплатно!
    Комментировать посты могут только пользователи прошедшие не сложную регистрацию
    Показать сообщения:    

    Tavinest _ Марс или Венера? через торрент
    Скачать бесплатно Tavinest _ Марс или Венера?
    Tavinest _ Марс или Венера? скачать торрент
    Tavinest _ Марс или Венера? смотреть онлайн
    Cкачать фильм Tavinest _ Марс или Венера? бесплатно
    Tavinest _ Марс или Венера? скачать торрент в хорошем качестве
    Tavinest _ Марс или Венера? смотреть онлайн бесплатно в хорошем качестве


    Вы не можете начинать темы
    Вы не можете отвечать на сообщения
    Вы не можете редактировать свои сообщения
    Вы не можете удалять свои сообщения
    Вы не можете голосовать в опросах
    Вы не можете прикреплять файлы к сообщениям
    Вы можете скачивать файлы