новый адрес
Ссылка на приватное зеркало всего за 1$. Внимание количество ограничено!!!

iTunes

1+1

iTunes

мы

WEB-DL

1

iTunes

Чернобыль

iTunes

Ральф против интернета

Лицензия

ПШазам

Лицензия

Оно 2

Лицензия

30
pack

Вам бонус

ВАЖНО

!!Акция!!

Alien_RageХит недели

RePack

Resident Evil 21

ИГРА 18+

pack

RePack

jed

!!Акция!!

Alien_Rage

RePack

fifa19

RePack

Assassins Creed: Odyssey

RePack

NEED FOR SPEED™ PAYBACK

3 сезон

9 сезон

Бесстыжие 9 сезон

Все сериалы

все сериалы на PB.wtf

RePack

FAR CRY 5
Ребята, катастрофически не хватает 1900р. для оплаты серверов за Октябрь (всвязи с блокировками трафик упал в 3 раза), 1-2р., выручайте.
  

Открытое море / Alta mar / High Seas / Сезон: 2 / Серии 1-8 из 8 (Лино Эскалера, Карлос Седес) [2019, Драма, криминал, детектив, WEBRip] MVO [TVShows] pb.wtf

Открытое море через торрент pb.wtf

Размер: 5.66 GB | Добавлен: 7 д. назад | Торрент скачан:0 раз
Скачать  

03-12-2019 00:54 Открытое море Скачать торрент  

Открытое море / Alta mar / High Seas
Год выпуска: 2019
Страна: Испания
Жанр: Драма, криминал, детектив
Продолжительность: ~ 00:40:00
Перевод: Профессиональный (многоголосый) | TVShows
Субтитры: отсутствуют

Режиссер: Лино Эскалера, Карлос Седес

rating

В ролях: Элой Асорин, Ивана Бакеро, Луис Бермехо, Эдуардо Бланко, Антонио Дуран «Моррис», Чики Фернандес, Феликс Гомес, Джон Кортахарена, Даниэль Лунд, Анхела Молина

Описание: Детективная история о расследовании одного убийства. На гигантском корабле, в поисках лучшей жизни плывут две сестры, Каролина и Ева. Вместе с ними на борту находится красавец офицер Николас Салас, оказавшийся не в том месте и не в тот момент. Во время путешествия, героям предстоит немало постараться, чтобы распутать преступление, которое вскоре произойдет на лайнере. Будет убита одна из пассажирок, чье имя не значится в списке поднявшихся на борт. Никто из путешественников, также не может вспомнить её. Для всех очевиден только один факт, убийца до сих пор на корабле. В открытом море он никуда деться не может, и пока он не пойман, все пассажиры находятся в опасности.

Качество: WEBRip
Формат: AVI

Видео: XVID, 704x352, 25.000 fps, ~2000 kbps, 0.32 bit/pixel
Аудио Rus: AC3, 48.0 KHz, 6 channels, 384 kbps
скриншот  скриншот  скриншот  скриншот  скриншот  

General
Complete name : D:\Сериалы\Открытое море (Сезон 2) TVShows\Alta.Mar.S02E01.WEBRip.RGzsRutracker.Celta88.avi
Format : AVI
Format/Info : Audio Video Interleave
File size : 650 MiB
Duration : 38 min 0 s
Overall bit rate : 2 393 kb/s
Writing application : VirtualDubMod 1.5.10.3 | www.virtualdub-fr.org || (build 2550/release)
Writing library : VirtualDubMod build 2550/release

Video
ID : 0
Format : MPEG-4 Visual
Format profile : Advanced Simple@L5
Format settings, BVOP : 1
Format settings, QPel : No
Format settings, GMC : No warppoints
Format settings, Matrix : Custom
Codec ID : XVID
Codec ID/Hint : XviD
Duration : 38 min 0 s
Bit rate : 1 999 kb/s
Width : 704 pixels
Height : 352 pixels
Display aspect ratio : 2.000
Frame rate : 25.000 FPS
Color space : YUV
Chroma subsampling : 4:2:0
Bit depth : 8 bits
Scan type : Progressive
Compression mode : Lossy
Bits/(Pixel*Frame) : 0.323
Stream size : 543 MiB (84%)
Writing library : XviD 73

Audio
ID : 1
Format : AC-3
Format/Info : Audio Coding 3
Mode extension : CM (complete main)
Format settings, Endianness : Big
Codec ID : 2000
Duration : 38 min 0 s
Bit rate mode : Constant
Bit rate : 384 kb/s
Channel(s) : 6 channels
Channel positions : Front: L C R, Side: L R, LFE
Sampling rate : 48.0 kHz
Frame rate : 31.250 FPS (1536 spf)
Bit depth : 16 bits
Compression mode : Lossy
Stream size : 104 MiB (16%)
Alignment : Split accross interleaves
Interleave, duration : 40 ms (1.00 video frame)
Interleave, preload duratio : 500 ms

pb.wtf



Скачать Открытое море через торрент https://i111.fastpic.ru/big/2019/1202/cd/64d31d3c6447833632c5c78ed5c6b9cd.jpg Скачать фильм Открытое море через торрент бесплантно в хорошем качестве Описание: Детективная история о расследовании одного убийства. На гигантском корабле, в поисках лучшей жизни плывут две сестры, Каролина и ... 10 10 2
Торрент: Зарегистрирован [2019-12-03 00:54] · скачан: 0 раз
Статус: √ проверено
Размер: 5.66 GB
Как cкачать? Как скачать Открытое море через торрент | qTorrent

% Раздел Тема Автор DL S | L
Зарубежные сериалы [ 5.47 GB ] Открытое море / Alta Mar / High Seas / Сезон: 2 / Серии: 1-8 из 8 [2019 WEBRip 720p] [MVO] killermax2013 Скачать
1 | 0
Зарубежные сериалы [ 9.68 GB ] Открытое море / Alta mar / High Seas / Сезон: 2 / Серии 1-8 из 8 [2019 WEBRip 1080p] MVO [TVShows] bober100 Скачать
1 | 0
Зарубежные сериалы [ 3.85 GB ] Открытое море / Alta Mar / High Seas / Сезон: 2 / Серии: 1-8 из 8 [2019 WEBRip] [DVO] killermax2013 Скачать
1 | 0
Зарубежные сериалы [ 7.99 GB ] Открытое море / Alta Mar / High Seas / Сезон: 2 / Серии: 1-8 из 8 [2019 WEBRip 720p] [DVO] killermax2013 Скачать
1 | 0

28-11-2019 20:33  

Отключить всю рекламу на сайте

    Дорогой пользователь! Огромная просьба, поблагодарите релизера, оцените раздачу и оставьте свои комментарий, если Вы скачали Открытое море через торрент бесплатно! Внесите свою лепту в развитие PiratBit!
    Комментировать посты могут только пользователи прошедшие не сложную регистрацию
    Показать сообщения:    

    Открытое море через торрент
    Скачать бесплатно Открытое море
    Открытое море скачать торрент
    Открытое море смотреть онлайн
    Cкачать фильм Открытое море бесплатно
    Открытое море скачать торрент в хорошем качестве
    Открытое море смотреть онлайн бесплатно в хорошем качестве


    Вы не можете начинать темы
    Вы не можете отвечать на сообщения
    Вы не можете редактировать свои сообщения
    Вы не можете удалять свои сообщения
    Вы не можете голосовать в опросах
    Вы не можете прикреплять файлы к сообщениям
    Вы можете скачивать файлы