Ссылка на приватное зеркало всего за 1$. Внимание количество ограничено!!!

iTunes

iTunes

iTunes

1

iTunes

iTunes

iTunes

iTunes

iTunes

30
pack

$ от Little Big

ВАЖНО

!!Акция!!

Alien_RageХит недели

RePack

Resident Evil 21

ИГРА 18+

pack

RePack

jed

!!Акция!!

Alien_Rage

RePack

fifa19

RePack

Assassins Creed: Odyssey

RePack

NEED FOR SPEED™ PAYBACK

4 сезон

9 сезон

Бесстыжие 9 сезон

Все сериалы

все сериалы на PB.wtf

RePack

FAR CRY 5
  

Папик / Сезон: 1 / Серии: 1-16 из 16 (Андрей Яковлев) [2019, Комедия, WEB-DL 1080p] pb.wtf

Папик через торрент pb.wtf

Раздают: 2 [ 0 KB/s ]
Размер: 14.51 GB | Добавлен: 6 мес. назад | Торрент скачан:167 раз
Скачать  

03-12-2019 01:22 Папик Скачать торрент  

Папик Год выпуска: 2019
Страна: Украина
Студия: Студия Квартал 95
Жанр: Комедия
Продолжительность: ~ 00:33:00 серия
Перевод: Не требуется
Субтитры: отсутствуют

Режиссер: Андрей Яковлев

В ролях: Станислав Боклан, Дарья Петрожицкая, Сергей Сипливый, Олеся Жураковская, Екатерина Кистень, Вера Кобзарь, Вячеслав Гиндин, Михаил Кукуюк

Описание: По сюжету, пенсионер, некогда популярный актер кино, доведенный до отчаяния, решает свести счеты с жизнью. Но напоследок хочет привести себя в порядок и идет в модный барбершоп. Там ему, конечно же, наливают, после чего его тянет на последние в своей жизни приключения. Но неожиданно в одном из клубов главный герой знакомится с девушкой, охотницей на "папиков", которая принимает его за успешного миллионера...

Качество: WEB-DL 1080p
Формат: MKV

Видео: MPEG-4 AVC, 1920x1080 (16:9), 25.000 fps, 3907 Kbps
Аудио: 48 kHz, AC3 Dolby Digital, 2 ch, 192 Kbps
скриншот  скриншот  скриншот  скриншот  скриншот  

General

Complete name : Downloads\Papik.2019.WEB-DL.(1080p).Getty\Papik.e01.2019.WEB-DL.(1080p).Getty.mkv
Format : Matroska
Format version : Version 4 / Version 2
File size : 976 MiB
Duration : 32mn 36s
Overall bit rate : 4 182 Kbps
Writing application : mkvmerge v7.8.0 ('River Man') 32bit built on Mar 27 2015 16:18:02
Writing library : libebml v1.3.1 + libmatroska v1.4.2
DURATION : 00:32:36.992000000
NUMBER_OF_FRAMES : 61156
NUMBER_OF_BYTES : 46967808
_STATISTICS_WRITING_APP : mkvmerge v7.8.0 ('River Man') 32bit built on Mar 27 2015 16:18:02
_STATISTICS_WRITING_DATE_UTC : 2019-12-02 22:37:55
_STATISTICS_TAGS : BPS DURATION NUMBER_OF_FRAMES NUMBER_OF_BYTES
Video #1
ID : 1
Format : AVC
Format/Info : Advanced Video Codec
Format profile : High@L4.0
Format settings, CABAC : Yes
Format settings, ReFrames : 3 frames
Codec ID : V_MPEG4/ISO/AVC
Duration : 32mn 37s
Bit rate : 3 907 Kbps
Width : 1 920 pixels
Height : 1 080 pixels
Display aspect ratio : 16:9
Frame rate mode : Constant
Frame rate : 25.000 fps
Color space : YUV
Chroma subsampling : 4:2:0
Bit depth : 8 bits
Scan type : Progressive
Bits/(Pixel*Frame) : 0.075
Stream size : 911 MiB (93%)
Default : Yes
Forced : No
Audio #2
ID : 2
Format : AC-3
Format/Info : Audio Coding 3
Mode extension : CM (complete main)
Format settings, Endianness : Big
Codec ID : A_AC3
Duration : 32mn 36s
Bit rate mode : Constant
Bit rate : 192 Kbps
Channel(s) : 2 channels
Channel positions : Front: L R
Sampling rate : 48.0 KHz
Bit depth : 16 bits
Compression mode : Lossy
Stream size : 44.8 MiB (5%)
Default : Yes
Forced : No

Внимание! Раздача ведётся путём добавления новых серий; при каждом добавлении создаётся новый торрент.
Чтобы начать докачку новой серии, пользователям необходимо сделать следующее:
1. Остановить скачивание.
2. Удалить старый торрент у себя из клиента (старые серии удалять не надо).
3. Скачать новый торрент и запустить его у себя в клиенте вместо старого, при этом указать клиенту путь в старую папку куда и должно происходить скачивание новых серий.
Ваш клиент при этом должен произвести хеширование (проверку) старой папки (если не производит сам - помогите ему сделать это), и будет докачивать только те серии которых у вас ещё нет. Старые серии при этом не удаляются, а продолжают раздаваться!
Eсли вы уже удалили старые серии, то предотвратить повторную закачку старых серий можно, отжав галочку в соответствующих местах при запуске нового торрента.
pb.wtf



Скачать Папик через торрент https://i111.fastpic.ru/big/2019/1213/62/5bbefe4e6f8269922c3db41176b66762.jpg Скачать фильм Папик через торрент бесплантно в хорошем качестве Описание: По сюжету, пенсионер, некогда популярный актер кино, доведенный до отчаяния, решает свести счеты с жизнью. Но напоследок хочет ... 9.1 10 11
Info! Золотая раздача, скачанное не засчитывается.
Торрент: Зарегистрирован [2019-12-14 04:34] · скачан: 167 раз
Статус: √ проверено
Размер: 14.51 GB
Как cкачать? Как скачать Папик через торрент | qTorrent

% Раздел Тема Автор DL S | L
Наши сериалы [ 7.28 GB ] Папик / Сезон: 1 / Серии: 1-16 из 16 + Взгляд изнутри [2019 WEB-DL 720p] bober100 Скачать
5 | 0
Наши сериалы [ 6.48 GB ] Папик / Сезон: 1 / Серии: 1-16 из 16 + Взгляд изнутри [2019 WEB-DLRip] bober100 Скачать
1 | 0
Наши сериалы [ 6.44 GB ] Папик / Сезон: 1 / Серии: 1-16 из 16 + Взгляд изнутри [2019 WEB-DLRip-AVC] bober100 Скачать
3 | 0

28-11-2019 20:33  

Отключить всю рекламу на сайте

18-01-2020 16:10 Папик Скачать торрент  

благодарюpb.wtf



    Дорогой пользователь! Огромная просьба, поблагодарите релизера, оцените раздачу и оставьте свои комментарий, если Вы скачали Папик через торрент бесплатно! Внесите свою лепту в развитие PiratBit!
    Комментировать посты могут только пользователи прошедшие не сложную регистрацию
    Показать сообщения:    

    Папик через торрент
    Скачать бесплатно Папик
    Папик скачать торрент
    Папик смотреть онлайн
    Cкачать фильм Папик бесплатно
    Папик скачать торрент в хорошем качестве
    Папик смотреть онлайн бесплатно в хорошем качестве


    Вы не можете начинать темы
    Вы не можете отвечать на сообщения
    Вы не можете редактировать свои сообщения
    Вы не можете удалять свои сообщения
    Вы не можете голосовать в опросах
    Вы не можете прикреплять файлы к сообщениям
    Вы можете скачивать файлы